Ссылка на приватное зеркало нашего сайта всего за 1$. Внимание количество ограничено!!!

2 сезон

iTunes

1 сезон

1

iTunes

iTunes

iTunes

1 сезон

RePack

30

ИГРА 18+

pack

ВАЖНО

!!Акция!!

Alien_RageХит недели

RePack

MK11
pack

Забери бонус

RePack

jed

!!Акция!!

Alien_Rage

RePack

fifa19

RePack

Assassins Creed: Odyssey

RePack

NEED FOR SPEED™ PAYBACK

4 сезон

9 сезон

Бесстыжие 9 сезон

Все сериалы

все сериалы на PB.wtf

RePack

FAR CRY 5
  

На грани / The Edge (Ли Тамахори) [1997, триллер, драма, приключения, BDRip 720p] 4 x MVO, 3 x AVO pb.wtf

На грани через торрент pb.wtf

Размер: 5.73 GB | Добавлен: 5 лет 6 мес. назад | Торрент скачан:164 раза
Скачать  

03-04-2015 07:35 На грани Скачать торрент  

На грани / The Edge

Год выпуска: 1997
Страна: США
Жанр: триллер, драма, приключения
Продолжительность: 01:57:33
Перевод: профессиональный многоголосый, авторский
Субтитры: русские, английские (все внешние)

Режиссёр: Ли Тамахори

В ролях: Энтони Хопкинс, Алек Болдуин, Эль Макферсон, Хэролд Перрино, Л. К. Джонс, Кэтлин Уилхойт, Марк Кили, Эли Габэй

Описание: Миллиардер Чарльз Морс отправляется со своей молодой женой супермоделью Микки на Аляску для фотосъёмок. Модный профессиональный фотограф Роберт Грин убедил их, что именно там есть место, которое идеально для этого подходит. В поисках они улетают намного дальше, чем предполагали. Их маленький самолёт терпит крушение при столкновении с птицами и падает в озеро. Пилот погибает, остальные спасаются. Но как выжить вдали от цивилизации? Чтобы спастись в лесу, полном диких животных, они должны полагаться только друг на друга. До спасения остается недолг, но Чарльз начинает подозревать свою жену в связи с Робертом...



Качество: BDRip 720p Сравнение с исходником
Формат: MKV
Видео кодек: H.264
Аудио кодек: AC3
Видео: 4047 Кбит/с, 1280x544, 23.976 кадра/с, 0.242 bpp
Аудио 1: русский, AC3, 448 kbps, 6 ch, 48 kHz [профессиональный многоголосый, Позитив Мультимедиа]
Аудио 2: русский, AC3, 384 kbps, 6 ch, 48 kHz [профессиональный многоголосый, XX Век Фокс СНГ]
Аудио 3: русский, AC3, 448 kbps, 6 ch, 48 kHz [авторский, Андрей Гаврилов]
Аудио 4: русский, AC3, 448 kbps, 6 ch, 48 kHz [авторский, Юрий Живов]

Внешние файлы:
Аудио: русский, AC3, 224 kbps, 2 ch, 48 kHz [профессиональный многоголосый, OPT]
Аудио: русский, AC3, 224 kbps, 2 ch, 48 kHz [профессиональный многоголосый, Премьер-видео]
Аудио: русский, AC3, 192 kbps, 2 ch, 48 kHz [авторский, Александр Кашкин (Первомайский)]
Аудио: английский, AC3, 448 kbps, 6 ch, 48 kHz [оригинал]
frame I:1154 Avg QP:18.38 size: 85500
frame P:32811 Avg QP:19.51 size: 42592
frame B:135138 Avg QP:21.61 size: 16077

Общее
Полное имя : D:VideoNa grani.1997.BDRip.720pNa grani.1997.AVO.rus.А.Кашкин (Первомайский).ac3
Формат : AC-3
Формат/Информация : Audio Coding 3
Размер файла : 161 Мбайт
Продолжительность : 1 ч. 57 м.
Режим общего битрейта : Постоянный
Общий поток : 192 Кбит/сек

Аудио
Формат : AC-3
Формат/Информация : Audio Coding 3
Расширение режима : CM (complete main)
Параметр Endianness формата : Big
Продолжительность : 1 ч. 57 м.
Вид битрейта : Постоянный
Битрейт : 192 Кбит/сек
Каналы : 2 канала
Расположение каналов : Front: L R
Частота : 48,0 КГц
Битовая глубина : 16 бит
Метод сжатия : С потерями
Размер потока : 161 Мбайт (100%)

Общее
Уникальный идентификатор : 195762846099910459023165439235931087022 (0x93468D7FBA7004ABB1622B598271A0AE)
Полное имя : D:VideoNa grani.1997.BDRip.720pNa grani.1997.BDRip.720p.mkv
Формат : Matroska
Версия формата : Version 4 / Version 2
Размер файла : 4,84 Гбайт
Продолжительность : 1 ч. 57 м.
Общий поток : 5892 Кбит/сек
Дата кодирования : UTC 2015-04-02 18:17:53
Программа кодирования : mkvmerge v7.8.0 ('River Man') 64bit built on Mar 27 2015 16:31:37
Библиотека кодирования : libebml v1.3.1 + libmatroska v1.4.2
_STATISTICS_WRITING_APP : mkvmerge v7.8.0 ('River Man') 64bit built on Mar 27 2015 16:31:37
_STATISTICS_WRITING_DATE_UTC : 2015-04-02 18:17:53
_STATISTICS_TAGS : BPS DURATION NUMBER_OF_FRAMES NUMBER_OF_BYTES
DURATION : 01:57:33.056000000
NUMBER_OF_FRAMES : 220408
NUMBER_OF_BYTES : 394971136

Видео
Идентификатор : 1
Формат : AVC
Формат/Информация : Advanced Video Codec
Профиль формата : High@L4.1
Параметр CABAC формата : Да
Параметр ReFrames формата : 9 кадров
Идентификатор кодека : V_MPEG4/ISO/AVC
Продолжительность : 1 ч. 57 м.
Битрейт : 4047 Кбит/сек
Ширина : 1280 пикселей
Высота : 544 пикселя
Соотношение сторон : 2,35:1
Режим частоты кадров : Постоянный
Частота кадров : 23,976 кадра/сек
Цветовое пространство : YUV
Субдискретизация насыщенности : 4:2:0
Битовая глубина : 8 бит
Тип развёртки : Прогрессивная
Бит/(Пиксели*Кадры) : 0.242
Размер потока : 3,32 Гбайт (69%)
Заголовок : BDRip -- STarankov
Библиотека кодирования : x264 core 146 r2538 121396c
Настройки программы : cabac=1 / ref=9 / deblock=1:-1:-1 / analyse=0x3:0x113 / me=umh / subme=10 / psy=1 / psy_rd=1.00:0.15 / mixed_ref=1 / me_range=32 / chroma_me=1 / trellis=2 / 8x8dct=1 / cqm=0 / deadzone=21,11 / fast_pskip=1 / chroma_qp_offset=-3 / threads=6 / lookahead_threads=1 / sliced_threads=0 / nr=0 / decimate=1 / interlaced=0 / bluray_compat=0 / constrained_intra=0 / bframes=10 / b_pyramid=2 / b_adapt=2 / b_bias=0 / direct=3 / weightb=1 / open_gop=0 / weightp=2 / keyint=230 / keyint_min=23 / scenecut=40 / intra_refresh=0 / rc_lookahead=40 / rc=crf / mbtree=0 / crf=19.0 / qcomp=0.60 / qpmin=0 / qpmax=69 / qpstep=4 / vbv_maxrate=40000 / vbv_bufsize=50000 / crf_max=0.0 / nal_hrd=none / filler=0 / ip_ratio=1.40 / pb_ratio=1.30 / aq=1:1.00
Язык : English
Default : Да
Forced : Нет
DURATION : 01:57:33.005000000
NUMBER_OF_FRAMES : 169103
NUMBER_OF_BYTES : 3668800051
_STATISTICS_WRITING_APP : mkvmerge v7.8.0 ('River Man') 64bit built on Mar 27 2015 16:31:37
_STATISTICS_WRITING_DATE_UTC : 2015-04-02 18:17:53
_STATISTICS_TAGS : BPS DURATION NUMBER_OF_FRAMES NUMBER_OF_BYTES

Аудио #1
Идентификатор : 2
Формат : AC-3
Формат/Информация : Audio Coding 3
Расширение режима : CM (complete main)
Параметр Endianness формата : Big
Идентификатор кодека : A_AC3
Продолжительность : 1 ч. 57 м.
Вид битрейта : Постоянный
Битрейт : 448 Кбит/сек
Каналы : 6 каналов
Расположение каналов : Front: L C R, Side: L R, LFE
Частота : 48,0 КГц
Битовая глубина : 16 бит
Метод сжатия : С потерями
Размер потока : 377 Мбайт (8%)
Заголовок : MVO (Позитив Мультимедиа)
Язык : Russian
Default : Да
Forced : Нет

Аудио #2
Идентификатор : 3
Формат : AC-3
Формат/Информация : Audio Coding 3
Расширение режима : CM (complete main)
Параметр Endianness формата : Big
Идентификатор кодека : A_AC3
Продолжительность : 1 ч. 57 м.
Вид битрейта : Постоянный
Битрейт : 384 Кбит/сек
Каналы : 6 каналов
Расположение каналов : Front: L C R, Side: L R, LFE
Частота : 48,0 КГц
Битовая глубина : 16 бит
Метод сжатия : С потерями
Размер потока : 323 Мбайт (7%)
Заголовок : MVO (XX Век Фокс СНГ)
Язык : Russian
Default : Нет
Forced : Нет

Аудио #3
Идентификатор : 4
Формат : AC-3
Формат/Информация : Audio Coding 3
Расширение режима : CM (complete main)
Параметр Endianness формата : Big
Идентификатор кодека : A_AC3
Продолжительность : 1 ч. 57 м.
Вид битрейта : Постоянный
Битрейт : 448 Кбит/сек
Каналы : 6 каналов
Расположение каналов : Front: L C R, Side: L R, LFE
Частота : 48,0 КГц
Битовая глубина : 16 бит
Метод сжатия : С потерями
Размер потока : 377 Мбайт (8%)
Заголовок : AVO (Андрей Гаврилов)
Язык : Russian
Default : Нет
Forced : Нет

Аудио #4
Идентификатор : 5
Формат : AC-3
Формат/Информация : Audio Coding 3
Расширение режима : CM (complete main)
Параметр Endianness формата : Big
Идентификатор кодека : A_AC3
Продолжительность : 1 ч. 57 м.
Вид битрейта : Постоянный
Битрейт : 448 Кбит/сек
Каналы : 6 каналов
Расположение каналов : Front: L C R, Side: L R, LFE
Частота : 48,0 КГц
Битовая глубина : 16 бит
Метод сжатия : С потерями
Размер потока : 377 Мбайт (8%)
Заголовок : AVO (Юрий Живов)
Язык : Russian
Default : Нет
Forced : Нет

Общее
Полное имя : D:VideoNa grani.1997.BDRip.720pNa grani.1997.eng.srt
Формат : SubRip
Размер файла : 87,8 Кбайт

Текст
Формат : SubRip
Метод сжатия : Без потерь

Общее
Полное имя : D:VideoNa grani.1997.BDRip.720pNa grani.1997.MVO.rus.OPT.ac3
Формат : AC-3
Формат/Информация : Audio Coding 3
Размер файла : 188 Мбайт
Продолжительность : 1 ч. 57 м.
Режим общего битрейта : Постоянный
Общий поток : 224 Кбит/сек

Аудио
Формат : AC-3
Формат/Информация : Audio Coding 3
Расширение режима : CM (complete main)
Параметр Endianness формата : Big
Продолжительность : 1 ч. 57 м.
Вид битрейта : Постоянный
Битрейт : 224 Кбит/сек
Каналы : 2 канала
Расположение каналов : Front: L R
Частота : 48,0 КГц
Битовая глубина : 16 бит
Метод сжатия : С потерями
Размер потока : 188 Мбайт (100%)

Общее
Полное имя : D:VideoNa grani.1997.BDRip.720pNa grani.1997.MVO.rus.Премьер-видео.ac3
Формат : AC-3
Формат/Информация : Audio Coding 3
Размер файла : 188 Мбайт
Продолжительность : 1 ч. 57 м.
Режим общего битрейта : Постоянный
Общий поток : 224 Кбит/сек

Аудио
Формат : AC-3
Формат/Информация : Audio Coding 3
Расширение режима : CM (complete main)
Параметр Endianness формата : Big
Продолжительность : 1 ч. 57 м.
Вид битрейта : Постоянный
Битрейт : 224 Кбит/сек
Каналы : 2 канала
Расположение каналов : Front: L R
Частота : 48,0 КГц
Битовая глубина : 16 бит
Метод сжатия : С потерями
Размер потока : 188 Мбайт (100%)

Общее
Полное имя : D:VideoNa grani.1997.BDRip.720pNa grani.1997.Original.eng.ac3
Формат : AC-3
Формат/Информация : Audio Coding 3
Размер файла : 377 Мбайт
Продолжительность : 1 ч. 57 м.
Режим общего битрейта : Постоянный
Общий поток : 448 Кбит/сек

Аудио
Формат : AC-3
Формат/Информация : Audio Coding 3
Расширение режима : CM (complete main)
Параметр Endianness формата : Big
Продолжительность : 1 ч. 57 м.
Вид битрейта : Постоянный
Битрейт : 448 Кбит/сек
Каналы : 6 каналов
Расположение каналов : Front: L C R, Side: L R, LFE
Частота : 48,0 КГц
Битовая глубина : 16 бит
Метод сжатия : С потерями
Размер потока : 377 Мбайт (100%)

Общее
Полное имя : D:VideoNa grani.1997.BDRip.720pNa grani.1997.rus.srt
Формат : SubRip
Размер файла : 88,1 Кбайт

Текст
Формат : SubRip
Метод сжатия : Без потерь
pb.wtf



Скачать На грани через торрент http://i65.fastpic.ru/big/2015/0402/a4/334edca2e0bb1c26a6ed65fa347e99a4.jpg Скачать фильм На грани через торрент бесплантно в хорошем качестве Описание: Миллиардер Чарльз Морс отправляется со своей молодой женой супермоделью Микки на Аляску для фотосъёмок. Модный ... 9.7 10 7
Info! Золотая раздача, скачанное не засчитывается.
Торрент: Зарегистрирован [2015-04-03 07:35] · скачан: 164 раз
Статус: √ проверено
Размер: 5.73 GB
Как cкачать? Как скачать На грани через торрент | qTorrent

% Раздел Тема Автор DL S | L
Фильмы до 2000 г. [ 4.38 GB ] На грани / The Edge [1997 BDRip-AVC] 4 x MVO 3 x AVO msltel Скачать
1 | 0

28-11-2019 20:33  

Отключить всю рекламу на сайте

03-04-2015 11:40 На грани Скачать торрент  

отличный фильм! поставил +10pb.wtf



04-04-2015 07:57 На грани Скачать торрент  

edapush писал(а):

отличный фильм! поставил +10

+1pb.wtf



04-04-2015 08:22 На грани Скачать торрент  

Чей перевод более достоверный?pb.wtf



    Дорогой пользователь! Огромная просьба, поблагодарите релизера, оцените раздачу и оставьте свои комментарий, если Вы скачали На грани через торрент бесплатно! Внесите свою лепту в развитие PiratBit!
    Комментировать посты могут только пользователи прошедшие не сложную регистрацию
    Показать сообщения:    

    На грани через торрент
    Скачать бесплатно На грани
    На грани скачать торрент
    На грани смотреть онлайн
    Cкачать фильм На грани бесплатно
    На грани скачать торрент в хорошем качестве
    На грани смотреть онлайн бесплатно в хорошем качестве


    Вы не можете начинать темы
    Вы не можете отвечать на сообщения
    Вы не можете редактировать свои сообщения
    Вы не можете удалять свои сообщения
    Вы не можете голосовать в опросах
    Вы не можете прикреплять файлы к сообщениям
    Вы можете скачивать файлы