Всегда рабочее зеркало без VPN и Proxy просто перед .vidak.icu напиши любое слово или цифру, Пример http://y35z.vidak.icu

MVO

2 сезон

2 сезон

1

1 сезон

iTunes

2 сезон

13

1 сезон

Deluxe

pack

Рекомендуем

Пиратка

30

ВАЖНО

RePack

MK11

RePack

jed

RePack

fifa19

RePack

RDR2

RePack

NEED FOR SPEED™ PAYBACK

Кинопоиск HD

6 сезон

 Острые козырьки 6 сезон

Все сериалы

все сериалы на PB.wtf

RePack

FAR CRY 5

Anonymous, нам критически не хватает 5601 руб. на оплату серверов и переферии за Апрель, помоги нам пожалуйста, вся надежда только на тебя. В благодарность мы отключим тебе всю рекламу на сайте!

×
  
Magnet ссылка

Miley Cyrus - Bangerz Tour [2014г., Pop, BDRip 720p] pb.wtf

Miley Cyrus - Bangerz Tour через торрент pb.wtf

Размер: 3.81 GB | Добавлен: 7 лет 1 мес. назад | Торрент скачан:52 раза
Смотреть онлайн Miley Cyrus - Bangerz Tour | Скачать    Ребята, помогите собрать деньги на оплату серверов!!!

03-04-2015 09:16 Miley Cyrus - Bangerz Tour Скачать торрент  

Оригинальное название: Miley Cyrus - Bangerz Tour
Год выпуска: 2014
Жанр: Pop
Выпущено: США, RCA
Исполнитель: Майли Сайрус

О музыке: Новый концертный Blu-ray, записанный во время последнего мирового тура в поддержку мультиплатинового альбома "Bangerz" от эпатажной, скандальной и безумно популярной во всем мире Майли Сайрус.

Качество: BDRip 720p (исходник Blu-ray)
Формат: AVC (библиотека кодирования x.264)
Контейнер (Расширение): MKV
Видео: 1280x720 (16:9), 5705 Кбит/сек, 29,970 кадр/сек, 0,207 Бит/[Пиксели*Кадры]
Аудио: английский / AC3 / 5.1 / 48 kHz / 640 kbps /
Продолжительность: 01:24:18Автор рипа: Сообщество:
01. SMS (Bangerz)
02. 4x4
03. Love money party
04. Maybe you're right
05. Fu
06. Do my thang
07. #Getitright
08. Can't be tamed
09. Adore you
10. Lucy in the sky widh diamonds
11. Drive
12. Rooting for my baby
13. Hey ya!
14. Jolene
15. On my own
16. Someone else
17. We can't stop
18. Wrecking ball
19. Party in the U.S.A.
Format : Matroska
Format version : Version 2
File size : 3.81 GiB
Duration : 1h 24mn
Overall bit rate : 6 474 Kbps
Movie name : Miley Cyrus - Bangerz Tour (2015) BDRip 720p от NNNB
Encoded date : UTC 2015-04-03 07:26:44
Writing application : mkvmerge v5.8.0 ('No Sleep / Pillow') built on Sep 2 2012 15:37:04
Writing library : libebml v1.2.3 + libmatroska v1.3.0

Video
ID : 1
Format : AVC
Format/Info : Advanced Video Codec
Format profile : High@L4.1
Format settings, CABAC : Yes
Format settings, ReFrames : 9 frames
Codec ID : V_MPEG4/ISO/AVC
Duration : 1h 24mn
Bit rate : 5 705 Kbps
Width : 1 280 pixels
Height : 720 pixels
Display aspect ratio : 16:9
Frame rate : 29.970 fps
Color space : YUV
Chroma subsampling : 4:2:0
Bit depth : 8 bits
Scan type : Progressive
Bits/(Pixel*Frame) : 0.207
Stream size : 3.36 GiB (88%)
Title : Miley Cyrus - Bangerz Tour (2015) BDRip 720p от NNNB
Writing library : x264 core 146 r2538 121396c
Encoding settings : cabac=1 / ref=9 / deblock=1:-3:-3 / analyse=0x3:0x133 / me=umh / subme=11 / psy=1 / psy_rd=1.00:0.00 / mixed_ref=1 / me_range=32 / chroma_me=1 / trellis=2 / 8x8dct=1 / cqm=0 / deadzone=21,11 / fast_pskip=0 / chroma_qp_offset=-2 / threads=6 / lookahead_threads=1 / sliced_threads=0 / nr=0 / decimate=1 / interlaced=0 / bluray_compat=0 / constrained_intra=0 / bframes=8 / b_pyramid=2 / b_adapt=2 / b_bias=0 / direct=3 / weightb=1 / open_gop=0 / weightp=2 / keyint=250 / keyint_min=25 / scenecut=40 / intra_refresh=0 / rc=crf / mbtree=0 / crf=17.9 / qcomp=0.60 / qpmin=0 / qpmax=69 / qpstep=4 / ip_ratio=1.40 / pb_ratio=1.30 / aq=1:0.90
Language : English
Default : Yes
Forced : No

Audio
ID : 2
Format : AC-3
Format/Info : Audio Coding 3
Mode extension : CM (complete main)
Codec ID : A_AC3
Duration : 1h 24mn
Bit rate mode : Constant
Bit rate : 640 Kbps
Channel(s) : 6 channels
Channel positions : Front: L C R, Side: L R, LFE
Sampling rate : 48.0 KHz
Bit depth : 16 bits
Compression mode : Lossy
Stream size : 386 MiB (10%)
Language : English
Default : Yes
Forced : No
x264 [info]: frame I:876 Avg QP:15.93 size: 80560
x264 [info]: frame P:36263 Avg QP:17.67 size: 43015
x264 [info]: frame B:114457 Avg QP:20.60 size: 17971
pb.wtf



Скачать Miley Cyrus - Bangerz Tour через торрент http://i59.fastpic.ru/big/2015/0403/64/420e953a2b7e27035bb69bd132826564.png Скачать, смотреть онлайн Miley Cyrus - Bangerz Tour [2014г., Pop, BDRip 720p] бесплантно в хорошем качестве Треклист: SMS (Bangerz) 4x4 Love money party Maybe you're right Fu Do my thang #Getitright08. Can't be tamed09. ... 8.5 10 6
Info! Золотая раздача, скачанное не засчитывается.
Торрент: Зарегистрирован [2015-04-03 09:16] · скачан: 52 раз
Статус: √ проверено
Размер: 3.81 GB
Как cкачать? Как скачать Miley Cyrus - Bangerz Tour через торрент | UTorrent



Последний раз редактировалось: _denis_100 (2015-04-03 23:15), всего редактировалось 1 раз

28-11-2019 20:33  

Отключить всю рекламу на сайте

03-04-2015 16:09 Miley Cyrus - Bangerz Tour Скачать торрент  

_denis_100, см. личку.pb.wtf



    Дорогой пользователь! Огромная просьба, поблагодарите релизера, оцените раздачу и оставьте свои комментарий, если Вы скачали Miley Cyrus - Bangerz Tour через торрент бесплатно!
    Комментировать посты могут только пользователи прошедшие не сложную регистрацию
    Показать сообщения:    

    Miley Cyrus - Bangerz Tour через торрент
    Скачать бесплатно Miley Cyrus - Bangerz Tour
    Miley Cyrus - Bangerz Tour скачать торрент
    Miley Cyrus - Bangerz Tour смотреть онлайн
    Cкачать фильм Miley Cyrus - Bangerz Tour бесплатно
    Miley Cyrus - Bangerz Tour скачать торрент в хорошем качестве
    Miley Cyrus - Bangerz Tour смотреть онлайн бесплатно в хорошем качестве


    Вы не можете начинать темы
    Вы не можете отвечать на сообщения
    Вы не можете редактировать свои сообщения
    Вы не можете удалять свои сообщения
    Вы не можете голосовать в опросах
    Вы не можете прикреплять файлы к сообщениям
    Вы можете скачивать файлы