Ссылка на приватное зеркало всего за 1$. Внимание количество ограничено!!!

iTunes

iTunes

iTunes

1

iTunes

iTunes

iTunes

iTunes

iTunes

30
pack

$ от Little Big

ВАЖНО

!!Акция!!

Alien_RageХит недели

RePack

Resident Evil 21

ИГРА 18+

pack

RePack

jed

!!Акция!!

Alien_Rage

RePack

fifa19

RePack

Assassins Creed: Odyssey

RePack

NEED FOR SPEED™ PAYBACK

4 сезон

9 сезон

Бесстыжие 9 сезон

Все сериалы

все сериалы на PB.wtf

RePack

FAR CRY 5
  

Не подавай виду / Something Wicked (Дэрин Скотт / Darin Scott) [2014, США, ужасы, триллер, драма, WEB-DL 720p] DVO + VO + ENG + SUB pb.wtf

Не подавай виду через торрент pb.wtf

Размер: 3.29 GB | Добавлен: 5 лет 3 мес. назад | Торрент скачан:59 раз
Скачать  

03-04-2015 09:26 Не подавай виду Скачать торрент  

Не подавай виду / Something Wicked
«Повесть о злодеяниях и обреченной любви»


  • Год выпуска: 2014
  • Страна: США
  • Жанр: ужасы, триллер, драма, детектив
  • Продолжительность: 01:31:46
  • Перевод: Любительское (двухголосое) [Sunny-Films]
    Любительское (одноголосое) [Павел Морозов aka PashaUp]- по переводу [Janetta]

  • Субтитры: русские, английские
  • Режиссер: Дэрин Скотт / Darin Scott
  • В ролях:

    Шантель Ван Сантен (Christine), Джон Робинсон (James), Джулиан Моррис (Ryan), Бриттани Мерфи (Susan), Джеймс Патрик Стюарт (Bill), Роберт Бланш (John Anderson), Кэти О’Грэйди (Erica), Табер Кросс (Kelly), Октоубер Мур (Donna), Бетти Мойер (Ellen), Меган Джой (Nurse), Джон Брин (Sheriff)

  • Описание:
    Кристин — молодая девушка, которая поступила в престижный колледж и никак не может нарадоваться этому успеху. Однако скорому отъезду девушки совсем не рад ее парень, который очень боится потерять любимую. Тогда пара решает пожениться, о чем сообщает родителям Кристин за ужином. Однако взрослые довольно плохо воспринимают эту новость, поскольку считают, что молодой паре не стоит торопиться. Семейный ужин заканчивается ужасной трагедией, в результате которой родители девушки погибают, а Кристин и Джеймс получают серьезные травмы. Спустя год, после ужасных событий, девушка живет в доме своего брата Билла и его супруги, учится в коллеже и продолжает встречаться с Джеймсом. Однако, после выписки из больницы, Кристин преследуют жуткие ведения. Психолог уверена, что девушка страдает от посттравматического синдрома, и ей необходима помощь специалистов, однако Билл пытается помочь сестре самостоятельно. Вскоре в городе происходит череда ужасных несчастных случаев, после чего главным подозреваемым становится чуть ли ни каждый близкий человек Кристин...
  • Рейтинг:



  • Качество: WEB-DL 720p
  • Формат: :MKV
  • Видео кодек: AVC
  • Аудио кодек: AC3
  • Видео: 1280x532 (2.40:1), 3873 kbps, 23,976 fps, 0,237 bpp
  • Аудио №1: русский / 2.0 / 48 kHz / 384 kbps / 16 bit |Sunny-Films|
  • Аудио №2: русский / 2.0 / 48 kHz / 384 kbps / 16 bit |Павел Морозов aka PashaUp|
  • Аудио №3: английский / 5.1 / 48 kHz / 384 kbps / 16 bit
  • Релиз от:

    Код:

    General
    Unique ID                                : 177796945726717351486217816664383062898 (0x85C27238D2FB799CBCC7DF9A4CEE8372)
    Complete name                            : D:\Фильмы\Something.Wicked.2014.WEB-DL.720p.CINEMANIA.mkv
    Format                                   : Matroska
    Format version                           : Version 4 / Version 2
    File size                                : 3.29 GiB
    Duration                                 : 1h 31mn
    Overall bit rate                         : 5 127 Kbps
    Movie name                               : Release Group CINEMANIA
    Encoded date                             : UTC 2015-04-02 18:03:59
    Writing application                      : mkvmerge v7.8.0 ('River Man') 64bit built on Mar 27 2015 16:31:37
    Writing library                          : libebml v1.3.1 + libmatroska v1.4.2

    Video
    ID                                       : 1
    Format                                   : AVC
    Format/Info                              : Advanced Video Codec
    Format profile                           : Main@L3.1
    Format settings, CABAC                   : No
    Format settings, ReFrames                : 2 frames
    Codec ID                                 : V_MPEG4/ISO/AVC
    Duration                                 : 1h 31mn
    Bit rate                                 : 3 873 Kbps
    Width                                    : 1 280 pixels
    Height                                   : 532 pixels
    Display aspect ratio                     : 2.40:1
    Frame rate                               : 23.976 fps
    Color space                              : YUV
    Chroma subsampling                       : 4:2:0
    Bit depth                                : 8 bits
    Scan type                                : Progressive
    Bits/(Pixel*Frame)                       : 0.237
    Stream size                              : 2.48 GiB (76%)
    Title                                    : Release Group CINEMANIA
    Language                                 : English
    Default                                  : Yes
    Forced                                   : No
    Color primaries                          : BT.709-5, BT.1361, IEC 61966-2-4, SMPTE RP177
    Transfer characteristics                 : BT.709-5, BT.1361
    Matrix coefficients                      : BT.709-5, BT.1361, IEC 61966-2-4 709, SMPTE RP177

    Audio #1
    ID                                       : 2
    Format                                   : AC-3
    Format/Info                              : Audio Coding 3
    Mode extension                           : CM (complete main)
    Codec ID                                 : A_AC3
    Duration                                 : 1h 31mn
    Bit rate mode                            : Constant
    Bit rate                                 : 384 Kbps
    Channel(s)                               : 2 channels
    Channel positions                        : Front: L R
    Sampling rate                            : 48.0 KHz
    Bit depth                                : 16 bits
    Compression mode                         : Lossy
    Stream size                              : 252 MiB (7%)
    Title                                    : Sunny-Films
    Language                                 : Russian
    Default                                  : Yes
    Forced                                   : Yes

    Audio #2
    ID                                       : 3
    Format                                   : AC-3
    Format/Info                              : Audio Coding 3
    Mode extension                           : CM (complete main)
    Codec ID                                 : A_AC3
    Duration                                 : 1h 31mn
    Bit rate mode                            : Constant
    Bit rate                                 : 384 Kbps
    Channel(s)                               : 2 channels
    Channel positions                        : Front: L R
    Sampling rate                            : 48.0 KHz
    Bit depth                                : 16 bits
    Compression mode                         : Lossy
    Stream size                              : 252 MiB (7%)
    Title                                    : Павел Морозов aka PashaUp
    Language                                 : Russian
    Default                                  : No
    Forced                                   : No

    Audio #3
    ID                                       : 4
    Format                                   : AC-3
    Format/Info                              : Audio Coding 3
    Mode extension                           : CM (complete main)
    Codec ID                                 : A_AC3
    Duration                                 : 1h 31mn
    Bit rate mode                            : Constant
    Bit rate                                 : 384 Kbps
    Channel(s)                               : 6 channels
    Channel positions                        : Front: L C R, Side: L R, LFE
    Sampling rate                            : 48.0 KHz
    Bit depth                                : 16 bits
    Compression mode                         : Lossy
    Stream size                              : 252 MiB (7%)
    Language                                 : English
    Default                                  : No
    Forced                                   : No

    Text #1
    ID                                       : 5
    Format                                   : UTF-8
    Codec ID                                 : S_TEXT/UTF8
    Codec ID/Info                            : UTF-8 Plain Text
    Language                                 : Russian
    Default                                  : Yes
    Forced                                   : Yes

    Text #2
    ID                                       : 6
    Format                                   : UTF-8
    Codec ID                                 : S_TEXT/UTF8
    Codec ID/Info                            : UTF-8 Plain Text
    Language                                 : English
    Default                                  : No
    Forced                                   : No

    Menu
    00:00:00.000                             : en:1
    00:04:38.000                             : en:2
    00:10:33.000                             : en:3
    00:17:40.000                             : en:4
    00:26:42.000                             : en:5
    00:36:54.000                             : en:6
    00:46:33.000                             : en:7
    00:56:00.000                             : en:8
    01:04:40.000                             : en:9
    01:12:36.000                             : en:10
    01:19:09.000                             : en:11
    01:25:14.000                             : en:12




    Скриншоты:



    pb.wtf



  • Скачать Не подавай виду через торрент http://i57.fastpic.ru/big/2015/0403/c8/69cd67214216e7720fc797c1172eb5c8.jpg Скачать фильм Не подавай виду через торрент бесплантно в хорошем качестве Описание: Кристин — молодая девушка, которая поступила в престижный колледж и никак не может нарадоваться этому успеху. Однако скорому ... 10 10 5
    Торрент: Зарегистрирован [2015-04-03 09:26] · скачан: 59 раз
    Статус: √ проверено
    Размер: 3.29 GB
    Как cкачать? Как скачать Не подавай виду через торрент | qTorrent

    28-11-2019 20:33  

    Отключить всю рекламу на сайте

    03-04-2015 15:13 Не подавай виду Скачать торрент  

    ... преследуют жуткие вЕдения.. на всякую херню ведётся..pb.wtf



      Дорогой пользователь! Огромная просьба, поблагодарите релизера, оцените раздачу и оставьте свои комментарий, если Вы скачали Не подавай виду через торрент бесплатно! Внесите свою лепту в развитие PiratBit!
      Комментировать посты могут только пользователи прошедшие не сложную регистрацию
      Показать сообщения:    

      Не подавай виду через торрент
      Скачать бесплатно Не подавай виду
      Не подавай виду скачать торрент
      Не подавай виду смотреть онлайн
      Cкачать фильм Не подавай виду бесплатно
      Не подавай виду скачать торрент в хорошем качестве
      Не подавай виду смотреть онлайн бесплатно в хорошем качестве


      Вы не можете начинать темы
      Вы не можете отвечать на сообщения
      Вы не можете редактировать свои сообщения
      Вы не можете удалять свои сообщения
      Вы не можете голосовать в опросах
      Вы не можете прикреплять файлы к сообщениям
      Вы можете скачивать файлы