2 сезон

iTunes

1 сезон

1

iTunes

iTunes

iTunes

1 сезон

RePack

30

ИГРА 18+

pack

ВАЖНО

!!Акция!!

Alien_RageХит недели

RePack

MK11
pack

Забери бонус

RePack

jed

!!Акция!!

Alien_Rage

RePack

fifa19

RePack

Assassins Creed: Odyssey

RePack

NEED FOR SPEED™ PAYBACK

4 сезон

9 сезон

Бесстыжие 9 сезон

Все сериалы

все сериалы на PB.wtf

RePack

FAR CRY 5
  

Исход: Цари и боги (Ридли Скотт) [2014, боевик, драма, приключения, BDRip 1080p] 2xDub (Rus, Ukr) + AVO (Есарев) + Original + Sub (Rus, Ukr, Eng) pb.wtf

Исход: Цари и боги через торрент pb.wtf

Размер: 20.78 GB | Добавлен: 5 лет 6 мес. назад | Торрент скачан:102 раза
Скачать  

03-04-2015 17:54 Исход: Цари и боги Скачать торрент  

Исход: Цари и боги / Exodus: Gods and Kings
«Он бросил вызов империи и изменил мир»



Год выпуска: 2014
Страна: Великобритания, США, Испания
Жанр: боевик, драма, приключения
Продолжительность: 02:30:20
Перевод: Дублированный [Лицензия]
Субтитры: Русские (Forced + Full), Украинские (Full), Английские (Full + SDH)



Режиссер:
  • Ридли Скотт / Ridley Scott
В ролях:
  • Кристиан Бэйл, Джоэл Эдгертон, Джон Туртурро, Аарон Пол, Бен Мендельсон, Мария Вальверде, Сигурни Уивер, Бен Кингсли, Хиам Аббасс, Исаак Эндрюс, Юэн Бремнер, Индира Варма
Описание: Ветхозаветная история о великом пророке Моисее и освобождении еврейского народа из египетского плена. Моисей появился на свет в те времена, когда фараон приказал убивать всех новорожденных мальчиков еврейского происхождения. Чтобы спасти его, мать положила малыша в корзину из тростника и отправила вниз по Нилу.
Ребенка нашла дочь фараона, которая усыновила его и растила рядом с Рамсесом - будущим фараоном. Много лет спустя, став мужчиной, Моисей бежит из Египта, а затем возвращается туда по велению Господа, чтобы избавить свой народ от оков рабства...



Качество: BDRip 1080p
Формат: MKV
Видео кодек: AVC
Аудио кодек: AC3 / DTS
Видео: 1920x800 (2.40:1), 23,976 fps, 15173 kbps, 0,412 bpp
Аудио №1: русский, 48 kHz, DTS, 5.1 ch, 755 kbps - Дубляж, Blu-ray EUR
Аудио №2: украинский, 48 kHz, AC3, 5.1 ch, 448 kbps - Дубляж, Blu-ray EUR
Аудио №3: русский, 48 kHz, DTS, 5.1 ch, 1510 kbps - Одноголосый закадровый, Д.Есарев
Аудио №4: английский, 48 kHz, DTS, 5.1 ch, 1510 kbps


Код:

Общее
Уникальный идентификатор                 : 201156788470166560449011739937798187481 (0x97556363E72030B2AD7A4BF6308969D9)
Полное имя                               : D:\Исход. Цари и боги (2014) BDRip 1080p.mkv
Формат                                   : Matroska
Версия формата                           : Version 4 / Version 2
Размер файла                             : 20,8 Гбайт
Продолжительность                        : 2 ч. 30 м.
Общий поток                              : 19,8 Мбит/сек
Дата кодирования                         : UTC 2015-04-03 17:40:13
Программа кодирования                    : mkvmerge v6.9.1 ('Blue Panther') 32bit built on Apr 18 2014 18:15:44
Библиотека кодирования                   : libebml v1.3.0 + libmatroska v1.4.1
Attachements                             : cover.jpg

Видео
Идентификатор                            : 1
Формат                                   : AVC
Формат/Информация                        : Advanced Video Codec
Профиль формата                          : High@L4.1
Параметр CABAC формата                   : Да
Параметр ReFrames формата                : 5 кадров
Идентификатор кодека                     : V_MPEG4/ISO/AVC
Продолжительность                        : 2 ч. 30 м.
Битрейт                                  : 15,2 Мбит/сек
Ширина                                   : 1920 пикселей
Высота                                   : 800 пикселей
Соотношение сторон                       : 2,40:1
Режим частоты кадров                     : Постоянный
Частота кадров                           : 23,976 кадра/сек
Цветовое пространство                    : YUV
Субдискретизация насыщенности            : 4:2:0
Битовая глубина                          : 8 бит
Тип развёртки                            : Прогрессивная
Бит/(Пиксели*Кадры)                      : 0.412
Размер потока                            : 15,9 Гбайт (77%)
Заголовок                                : VietHD
Библиотека кодирования                   : x264 core 146 r0+2584 6cf85c6 t_mod_Custom [8-bit@all ]
Настройки программы                      : cabac=1 / ref=5 / deblock=1:-3:-3 / analyse=0x3:0x133 / me=tesa / subme=10 / psy=1 / fade_compensate=0.00 / psy_rd=1.03:0.00 / mixed_ref=1 / me_range=24 / chroma_me=1 / trellis=2 / 8x8dct=1 / cqm=0 / deadzone=21,11 / fast_pskip=1 / chroma_qp_offset=-2 / threads=24 / lookahead_threads=4 / sliced_threads=0 / nr=0 / decimate=1 / interlaced=0 / bluray_compat=0 / constrained_intra=0 / fgo=0 / bframes=9 / b_pyramid=2 / b_adapt=2 / b_bias=0 / direct=3 / weightb=1 / open_gop=0 / weightp=2 / keyint=250 / keyint_min=23 / scenecut=40 / intra_refresh=0 / rc=crf / mbtree=0 / crf=15.5000 / qcomp=0.60 / qpmin=0:0:0 / qpmax=69:69:69 / qpstep=4 / ip_ratio=1.40 / pb_ratio=1.20 / aq=3:0.82 / aq-sensitivity=10.00 / aq-factor=1.00:1.00:1.00 / aq2=0 / aq3=0 / zones=48,550,crf=14/2286,2524,crf=14/7364,7457,crf=14/7702,7756,crf=14/8150,8255,crf=14/8416,8520,crf=14/11139,11300,crf=14/12136,12158,crf=14/13587,13639,crf=14/14292,14419,crf=14/14942,14988,crf=14/15091,16843,crf=14/20909,20955,crf=14/23048,23170,crf=14/23353,23616,crf=14/30159,30350,crf=14/32186,32311,crf=14/37328,38180,crf=14/38502,38628,crf=14/41469,41709,crf=14/41797,41874,crf=14/42125,42198,crf=14/60030,60830,crf=14/61570,61615,crf=14/61667,62551,crf=14/63792,64166,crf=14/64286,64344,crf=14/75575,75658,crf=14/75731,75776,crf=14/78215,82710,crf=14.8/92675,92742,crf=14/93727,93823,crf=14/103591,103872,crf=14/103928,103988,crf=14/107025,107136,crf=14/107502,107947,crf=14/108194,108235,crf=14/110618,114824,crf=14.8/115208,116917,crf=14/131412,131520,crf=14/132171,133360,crf=14/137230,142901,crf=14.8/148513,153687,crf=14.8/161776,161882,crf=14/162822,163256,crf=14/165135,165268,crf=14/169248,169361,crf=14/170236,170298,crf=14/170375,173198,crf=14/174229,174340,crf=14/174559,174816,crf=14/175517,175585,crf=14/175701,175772,crf=14/184002,191411,crf=14.8/191412,191772,crf=14/200965,201239,crf=14/201514,201605,crf=14/205819,206155,crf=14
Язык                                     : English
Default                                  : Да
Forced                                   : Нет
Коэффициенты матрицы                     : BT.709
colour_range                             : Limited

Аудио #1
Идентификатор                            : 2
Формат                                   : DTS
Формат/Информация                        : Digital Theater Systems
Режим                                    : 16
Параметр Endianness формата              : Big
Идентификатор кодека                     : A_DTS
Продолжительность                        : 2 ч. 30 м.
Вид битрейта                             : Постоянный
Битрейт                                  : 768 Кбит/сек
Каналы                                   : 6 каналов
Расположение каналов                     : Front: L C R, Side: L R, LFE
Частота                                  : 48,0 КГц
Битовая глубина                          : 24 бит
Метод сжатия                             : С потерями
Размер потока                            : 826 Мбайт (4%)
Заголовок                                : Дубляж, Blu-ray EUR
Язык                                     : Russian
Default                                  : Да
Forced                                   : Нет

Аудио #2
Идентификатор                            : 3
Формат                                   : AC-3
Формат/Информация                        : Audio Coding 3
Расширение режима                        : CM (complete main)
Параметр Endianness формата              : Big
Идентификатор кодека                     : A_AC3
Продолжительность                        : 2 ч. 30 м.
Вид битрейта                             : Постоянный
Битрейт                                  : 448 Кбит/сек
Каналы                                   : 6 каналов
Расположение каналов                     : Front: L C R, Side: L R, LFE
Частота                                  : 48,0 КГц
Битовая глубина                          : 16 бит
Метод сжатия                             : С потерями
Размер потока                            : 482 Мбайт (2%)
Заголовок                                : Дубляж, Blu-ray EUR
Язык                                     : Ukrainian
Default                                  : Нет
Forced                                   : Нет

Аудио #3
Идентификатор                            : 4
Формат                                   : DTS
Формат/Информация                        : Digital Theater Systems
Режим                                    : 16
Параметр Endianness формата              : Big
Идентификатор кодека                     : A_DTS
Продолжительность                        : 2 ч. 30 м.
Вид битрейта                             : Постоянный
Битрейт                                  : 1509 Кбит/сек
Каналы                                   : 6 каналов
Расположение каналов                     : Front: L C R, Side: L R, LFE
Частота                                  : 48,0 КГц
Битовая глубина                          : 24 бит
Метод сжатия                             : С потерями
Размер потока                            : 1,58 Гбайт (8%)
Заголовок                                : Одноголосый закадровый, Д.Есарев
Язык                                     : Russian
Default                                  : Нет
Forced                                   : Нет

Аудио #4
Идентификатор                            : 5
Формат                                   : DTS
Формат/Информация                        : Digital Theater Systems
Режим                                    : 16
Параметр Endianness формата              : Big
Идентификатор кодека                     : A_DTS
Продолжительность                        : 2 ч. 30 м.
Вид битрейта                             : Постоянный
Битрейт                                  : 1509 Кбит/сек
Каналы                                   : 6 каналов
Расположение каналов                     : Front: L C R, Side: L R, LFE
Частота                                  : 48,0 КГц
Битовая глубина                          : 24 бит
Метод сжатия                             : С потерями
Задержка видео                           : 11 мс.
Размер потока                            : 1,58 Гбайт (8%)
Язык                                     : English
Default                                  : Нет
Forced                                   : Нет

Текст #1
Идентификатор                            : 6
Формат                                   : UTF-8
Идентификатор кодека                     : S_TEXT/UTF8
Идентификатор кодека/Информация          : UTF-8 Plain Text
Заголовок                                : Forced
Язык                                     : Russian
Default                                  : Да
Forced                                   : Нет

Текст #2
Идентификатор                            : 7
Формат                                   : UTF-8
Идентификатор кодека                     : S_TEXT/UTF8
Идентификатор кодека/Информация          : UTF-8 Plain Text
Заголовок                                : Full
Язык                                     : Russian
Default                                  : Нет
Forced                                   : Нет

Текст #3
Идентификатор                            : 8
Формат                                   : UTF-8
Идентификатор кодека                     : S_TEXT/UTF8
Идентификатор кодека/Информация          : UTF-8 Plain Text
Заголовок                                : Full
Язык                                     : Ukrainian
Default                                  : Нет
Forced                                   : Нет

Текст #4
Идентификатор                            : 9
Формат                                   : UTF-8
Идентификатор кодека                     : S_TEXT/UTF8
Идентификатор кодека/Информация          : UTF-8 Plain Text
Заголовок                                : Full
Язык                                     : English
Default                                  : Нет
Forced                                   : Нет

Текст #5
Идентификатор                            : 10
Формат                                   : UTF-8
Идентификатор кодека                     : S_TEXT/UTF8
Идентификатор кодека/Информация          : UTF-8 Plain Text
Заголовок                                : SDH
Язык                                     : English
Default                                  : Нет
Forced                                   : Нет

Меню
00:00:00.000                             : en:00:00:00.000
00:03:55.402                             : en:00:03:55.402
00:06:51.995                             : en:00:06:51.995
00:11:47.707                             : en:00:11:47.707
00:14:29.452                             : en:00:14:29.452
00:18:37.658                             : en:00:18:37.658
00:22:15.834                             : en:00:22:15.834
00:26:51.151                             : en:00:26:51.151
00:30:31.288                             : en:00:30:31.288
00:36:41.366                             : en:00:36:41.366
00:40:48.321                             : en:00:40:48.321
00:44:49.937                             : en:00:44:49.937
00:48:47.800                             : en:00:48:47.800
00:51:16.448                             : en:00:51:16.448
00:54:22.217                             : en:00:54:22.217
00:57:32.658                             : en:00:57:32.658
01:00:31.169                             : en:01:00:31.169
01:04:41.544                             : en:01:04:41.544
01:06:49.047                             : en:01:06:49.047
01:11:01.883                             : en:01:11:01.883
01:16:53.692                             : en:01:16:53.692
01:21:18.040                             : en:01:21:18.040
01:24:30.357                             : en:01:24:30.357
01:28:08.533                             : en:01:28:08.533
01:30:54.157                             : en:01:30:54.157
01:34:14.566                             : en:01:34:14.566
01:37:20.543                             : en:01:37:20.543
01:39:20.204                             : en:01:39:20.204
01:42:40.321                             : en:01:42:40.321
01:46:50.070                             : en:01:46:50.070
01:49:02.661                             : en:01:49:02.661
01:52:18.315                             : en:01:52:18.315
01:57:29.876                             : en:01:57:29.876
02:00:23.842                             : en:02:00:23.842
02:05:41.325                             : en:02:05:41.325
02:07:31.269                             : en:02:07:31.269
02:13:38.469                             : en:02:13:38.469
02:16:21.882                             : en:02:16:21.882
02:19:39.997                             : en:02:19:39.997
02:23:19.800                             : en:02:23:19.800

Бюджет фильма: $140 000 000
Премьера (мир): 3 декабря 2014
Премьера (РФ): 1 января 2015,
«Двадцатый Век Фокс СНГ»



3D

Релиз на Blu-Ray: 9 апреля 2015,
«Двадцатый Век Фокс СНГ»,
...

Релиз на DVD: 9 апреля 2015,
«Двадцатый Век Фокс СНГ»,
...
Данный релиз идеален для пополнения домашней коллекции BDRip'ов.
В релиз вшита русская обложка размером 520х600 пикселей (аналогичные размеры у всех обложек для данной категории), что позволяет предать визуальную красоту Ваших фильмов.
Так же релиз максимально наполнен аудио дорожками в высоком качестве и субтитрами в формате srt.
Раздача обновляемая! При выходе других авторских переводов, релиз будет обновлен!
Итак, посмотрим на примере, как будет выглядеть Ваша коллекция: скриншот  
К сожалению, далеко не все, встроенные в телевизор медиаплееры, умеют воспроизводить звук в формате "DTS".
Выходов несколько: либо скачать другую раздачу, в которой звук будет в формате "АС3", либо перекодировать из "DTS" в "АС3".
Так же можно воспроизвести фильм с Вашего персонального компьютера/ноутбука, подключенного к телевизору через провод HDMI.
Фильмы выпускаются для кинотеатров, с пропорциями 2.35:1. И в таком же виде обычно издаются на дисках.
Монитор 16:9 имеет пропорции 1.77:1 поэтому более широкоформатное кино будет отображаться с черными полосами.
Надо это просто принять, ведь так снимают многие кинокартины.
Но некоторые фильмы могут быть и на весь экран. Особенно сериалы.
В рипах обычно обрезают черные полосы, и получают разрешение 1920х800, где приблизительно 280 пикселей занимали, повторюсь, черные полосы на экране.
Пример кадра "на весь экран": скриншот  
Пример кадра "не на весь экран": скриншот  
pb.wtf



Скачать Исход: Цари и боги через торрент http://i59.fastpic.ru/big/2015/0403/f5/b44637121dee259ef99cbfd5ec50f8f5.png Скачать фильм Исход: Цари и боги через торрент бесплантно в хорошем качестве Описание: Ветхозаветная история о великом пророке Моисее и освобождении еврейского народа из египетского плена. Моисей появился на свет в ... 10 10 4
Info! Золотая раздача, скачанное не засчитывается.
Торрент: Зарегистрирован [2015-04-03 18:05] · скачан: 102 раз
Статус: √ проверено
Размер: 20.78 GB
Как cкачать? Как скачать Исход: Цари и боги через торрент | qTorrent

% Раздел Тема Автор DL S | L
3D Фильмы [ 22.02 GB ] Исход: Цари и боги [2014 BDrip 1080p] OverUnder / Вертикальная стереопара serega768 Скачать
1 | 0
Ultra HD (UHD: 2K, 4K, 8K) — видео сверхвысокой чёткости [ 38.42 GB ] Исход: Цари и боги / Exodus: Gods and Kings [2012 UHD BDRemux 2160p] - [] sheker187 Скачать
2 | 0
Фильмы 2014 [DVDrip, WEB-DLRip, HDrip] [ 1.45 GB ] Исход: Цари и боги [2014 WEB-DLRip - ] Ворон Скачать
1 | 0
Фильмы (BDRip, HDrip-AVC) (48-60 fps) [ 3.97 GB ] Исход: Цари и боги [2014 Испания BDRip-AVC 60fps ] от R.G. HD-Films Tiberiumsun69 Скачать
1 | 0
Фильмы (DVD фильмы) [ 7.19 GB ] Исход: цари и боги [2014 DVD9] R5 voovaz Скачать
1 | 0
Фильмы (Blu-ray, BD-Remux, HDDVD) [ 41 GB ] Исход: Цари и боги [2014 BD-Remux 2xDUB+AVO+Original] от R.G. HD-Films Seedtank Скачать
1 | 0
Фильмы 2014 [DVDrip, WEB-DLRip, HDrip] [ 2.73 GB ] Исход: Цари и боги [2014 Испания WEB-DLRip - / ] _KaisiK_ Скачать
1 | 0


Последний раз редактировалось: Seedtank (2015-05-31 17:49), всего редактировалось 2 раз(а)

28-11-2019 20:33  

Отключить всю рекламу на сайте

03-04-2015 18:37 Исход: Цари и боги Скачать торрент  

хрень редкостная , хотя вроде бы и режиссер хороший...pb.wtf



06-04-2015 19:21 Исход: Цари и боги Скачать торрент  

согласен бред полный pb.wtf



16-01-2016 20:24 Исход: Цари и боги Скачать торрент  

отличный фильм. Спасибоpb.wtf



    Дорогой пользователь! Огромная просьба, поблагодарите релизера, оцените раздачу и оставьте свои комментарий, если Вы скачали Исход: Цари и боги через торрент бесплатно! Внесите свою лепту в развитие PiratBit!
    Комментировать посты могут только пользователи прошедшие не сложную регистрацию
    Показать сообщения:    

    Исход: Цари и боги через торрент
    Скачать бесплатно Исход: Цари и боги
    Исход: Цари и боги скачать торрент
    Исход: Цари и боги смотреть онлайн
    Cкачать фильм Исход: Цари и боги бесплатно
    Исход: Цари и боги скачать торрент в хорошем качестве
    Исход: Цари и боги смотреть онлайн бесплатно в хорошем качестве


    Вы не можете начинать темы
    Вы не можете отвечать на сообщения
    Вы не можете редактировать свои сообщения
    Вы не можете удалять свои сообщения
    Вы не можете голосовать в опросах
    Вы не можете прикреплять файлы к сообщениям
    Вы можете скачивать файлы