Ссылка на приватное зеркало нашего сайта всего за 1$. Внимание количество ограничено!!!

2 сезон

iTunes

1 сезон

1

iTunes

iTunes

iTunes

1 сезон

RePack

30

ИГРА 18+

pack

ВАЖНО

!!Акция!!

Alien_RageХит недели

RePack

MK11
pack

Забери бонус

RePack

jed

!!Акция!!

Alien_Rage

RePack

fifa19

RePack

Assassins Creed: Odyssey

RePack

NEED FOR SPEED™ PAYBACK

4 сезон

9 сезон

Бесстыжие 9 сезон

Все сериалы

все сериалы на PB.wtf

RePack

FAR CRY 5
  

Грань будущего / Edge of Tomorrow (Даг Лайман) [2014, фантастика, боевик, BDRip 1080p] DUB Лицензия pb.wtf

Грань будущего через торрент pb.wtf

Размер: 14.64 GB | Добавлен: 5 лет 6 мес. назад | Торрент скачан:853 раза
Скачать  

27-09-2014 06:46 Грань будущего Скачать торрент  

Грань будущего / Edge of Tomorrow
«Живи. Умри. И снова»

Год выпуска: 2014
Страна: США, Австралия
Жанр:фантастика, боевик
Продолжительность:01:53:29
Перевод:Дубляж /Лицензия Blu-Ray CEE/
Субтитры: Русские (форс. + полные), Украинские, Английские (x3) |отключаемые*.srt|
Режиссер:Даг Лайман

  • В ролях:

    Том Круз (Cage), Эмили Блант (Rita), Билл Пэкстон (Master Sergeant Farell), Брендан Глисон (General Brigham), Джонас Армстронг (Skinner), Тони Вэй (Kimmel), Кик Гарри (Griff), Франц Драмех (Ford), Драгомир Мрсич (Kuntz), Шарлотта Райли (Nance), Масаёси Ханеда (Takeda), Теренс Мэйнард (Cruel Sergeant)

  • Описание:
    В недалёком будущем раса инопланетян вторгается на Землю. Никакая армия в мире не может противостоять им. Майор Уильям Кейдж умирает в бою, но случается невозможное - он оказывается во временной петле. Раз за разом он попадает в один и тот же бой, сражается и умирает... снова и снова. И каждое повторяющееся сражение приближает его к разгадке того, как победить врага.

  • Мировая премьера:28 мая 2014

    Качество: BDRip 1080p
    Формат:MKV
    Видео кодек: AVC
    Аудио кодек:AC3
    Видео: AVC, 1920x800 (2.40:1), 16179 kbps, 23,976 fps, 0,439 bpp
    Аудио №1: русский / AC3 / 5.1 / 48 kHz / 640 kbps / 16 bit ||
    Аудио №2: украинский / AC3 / 5.1 / 48 kHz / 640 kbps / 16 bit
    Аудио №3: английский / AC3 / 5.1 / 48 kHz / 640 kbps / 16 bit
    Навигация по главам: есть


    Код:

    General
    Unique ID                                : 225753062991115487122982034397307392331 (0xA9D6755A0A992695B9ED36D803C0D14B)
    Complete name                            : D:\Торенты\Gran.Buduschego.2014.TRIPLE.BluRay.1080p.x264.AC3.-HQ-ViDEO.mkv
    Format                                   : Matroska
    Format version                           : Version 2
    File size                                : 14.6 GiB
    Duration                                 : 1h 53mn
    Overall bit rate                         : 18.5 Mbps
    Movie name                               : Edge of Tomorrow (2014) - HQ-ViDEO
    Encoded date                             : UTC 2014-09-26 21:11:54
    Writing application                      : mkvmerge v7.2.0 ('On Every Street') 64bit built on Sep 13 2014 15:52:10
    Writing library                          : libebml v1.3.0 + libmatroska v1.4.1

    Video
    ID                                       : 1
    Format                                   : AVC
    Format/Info                              : Advanced Video Codec
    Format profile                           : High@L4.1
    Format settings, CABAC                   : Yes
    Format settings, ReFrames                : 5 frames
    Codec ID                                 : V_MPEG4/ISO/AVC
    Duration                                 : 1h 53mn
    Bit rate                                 : 16.2 Mbps
    Width                                    : 1 920 pixels
    Height                                   : 800 pixels
    Display aspect ratio                     : 2.40:1
    Frame rate                               : 23.976 fps
    Color space                              : YUV
    Chroma subsampling                       : 4:2:0
    Bit depth                                : 8 bits
    Scan type                                : Progressive
    Bits/(Pixel*Frame)                       : 0.439
    Stream size                              : 12.8 GiB (88%)
    Title                                    : Vaippp @ 16543.33 Kbps
    Writing library                          : x264 core 142 r2479 dd79a61
    Encoding settings                        : cabac=1 / ref=5 / deblock=1:-3:-3 / analyse=0x3:0x133 / me=tesa / subme=11 / psy=1 / psy_rd=1.10:0.00 / mixed_ref=1 / me_range=24 / chroma_me=1 / trellis=2 / 8x8dct=1 / cqm=0 / deadzone=21,11 / fast_pskip=1 / chroma_qp_offset=-2 / threads=12 / lookahead_threads=2 / sliced_threads=0 / nr=0 / decimate=1 / interlaced=0 / bluray_compat=0 / constrained_intra=0 / bframes=8 / b_pyramid=2 / b_adapt=2 / b_bias=0 / direct=1 / weightb=1 / open_gop=0 / weightp=2 / keyint=240 / keyint_min=22 / scenecut=40 / intra_refresh=0 / rc_lookahead=60 / rc=crf / mbtree=0 / crf=15.9 / qcomp=0.80 / qpmin=0 / qpmax=69 / qpstep=4 / vbv_maxrate=62500 / vbv_bufsize=78125 / crf_max=0.0 / nal_hrd=none / filler=0 / ip_ratio=1.40 / pb_ratio=1.30 / aq=1:0.60 / zones=164,233,crf=11.5/401,599,crf=11.5/1077,1148,crf=11.5/2851,3132,crf=11.5/27519,27530,crf=11.5/51914,51943,crf=10/60114,60290,crf=11.5/75449,75465,crf=11.5/106933,106995,crf=11.5/107827,107951,crf=11.5/118059,118108,crf=11.5/118526,118565,crf=11.5/118956,118979,crf=11.5/146503,146657,crf=11.5
    Language                                 : English
    Default                                  : Yes
    Forced                                   : No
    Color primaries                          : BT.709-5, BT.1361, IEC 61966-2-4, SMPTE RP177
    Transfer characteristics                 : BT.709-5, BT.1361
    Matrix coefficients                      : BT.709-5, BT.1361, IEC 61966-2-4 709, SMPTE RP177

    Audio #1
    ID                                       : 2
    Format                                   : AC-3
    Format/Info                              : Audio Coding 3
    Mode extension                           : CM (complete main)
    Codec ID                                 : A_AC3
    Duration                                 : 1h 53mn
    Bit rate mode                            : Constant
    Bit rate                                 : 640 Kbps
    Channel(s)                               : 6 channels
    Channel positions                        : Front: L C R, Side: L R, LFE
    Sampling rate                            : 48.0 KHz
    Bit depth                                : 16 bits
    Compression mode                         : Lossy
    Stream size                              : 520 MiB (3%)
    Title                                    : AC3 DD 5.1 @ 640 Kbps DUB - Blu-Ray CEE
    Language                                 : Russian
    Default                                  : Yes
    Forced                                   : Yes

    Audio #2
    ID                                       : 3
    Format                                   : AC-3
    Format/Info                              : Audio Coding 3
    Mode extension                           : CM (complete main)
    Codec ID                                 : A_AC3
    Duration                                 : 1h 53mn
    Bit rate mode                            : Constant
    Bit rate                                 : 640 Kbps
    Channel(s)                               : 6 channels
    Channel positions                        : Front: L C R, Side: L R, LFE
    Sampling rate                            : 48.0 KHz
    Bit depth                                : 16 bits
    Compression mode                         : Lossy
    Stream size                              : 520 MiB (3%)
    Title                                    : AC3 DD 5.1 @ 640 Kbps DUB - Blu-Ray CEE
    Language                                 : Ukrainian
    Default                                  : No
    Forced                                   : No

    Audio #3
    ID                                       : 4
    Format                                   : AC-3
    Format/Info                              : Audio Coding 3
    Mode extension                           : CM (complete main)
    Codec ID                                 : A_AC3
    Duration                                 : 1h 53mn
    Bit rate mode                            : Constant
    Bit rate                                 : 640 Kbps
    Channel(s)                               : 6 channels
    Channel positions                        : Front: L C R, Side: L R, LFE
    Sampling rate                            : 48.0 KHz
    Bit depth                                : 16 bits
    Compression mode                         : Lossy
    Stream size                              : 520 MiB (3%)
    Title                                    : AC3 DD 5.1 @ 640 Kbps Original - Blu-Ray US
    Language                                 : English
    Default                                  : No
    Forced                                   : No

    Text #1
    ID                                       : 5
    Format                                   : UTF-8
    Codec ID                                 : S_TEXT/UTF8
    Codec ID/Info                            : UTF-8 Plain Text
    Title                                    : Forced
    Language                                 : Russian
    Default                                  : Yes
    Forced                                   : Yes

    Text #2
    ID                                       : 6
    Format                                   : UTF-8
    Codec ID                                 : S_TEXT/UTF8
    Codec ID/Info                            : UTF-8 Plain Text
    Title                                    : Full
    Language                                 : Russian
    Default                                  : No
    Forced                                   : No

    Text #3
    ID                                       : 7
    Format                                   : UTF-8
    Codec ID                                 : S_TEXT/UTF8
    Codec ID/Info                            : UTF-8 Plain Text
    Language                                 : Ukrainian
    Default                                  : No
    Forced                                   : No

    Text #4
    ID                                       : 8
    Format                                   : UTF-8
    Codec ID                                 : S_TEXT/UTF8
    Codec ID/Info                            : UTF-8 Plain Text
    Language                                 : English
    Default                                  : No
    Forced                                   : No

    Text #5
    ID                                       : 9
    Format                                   : UTF-8
    Codec ID                                 : S_TEXT/UTF8
    Codec ID/Info                            : UTF-8 Plain Text
    Title                                    : SDH
    Language                                 : English
    Default                                  : No
    Forced                                   : No

    Text #6
    ID                                       : 10
    Format                                   : UTF-8
    Codec ID                                 : S_TEXT/UTF8
    Codec ID/Info                            : UTF-8 Plain Text
    Title                                    : SDH-COLORED
    Language                                 : English
    Default                                  : No
    Forced                                   : No

    Menu
    00:00:00.000                             : en:Chapter 01
    00:10:28.169                             : en:Chapter 02
    00:17:39.099                             : en:Chapter 03
    00:24:50.197                             : en:Chapter 04
    00:35:57.947                             : en:Chapter 05
    00:46:27.284                             : en:Chapter 06
    00:54:34.771                             : en:Chapter 07
    01:04:59.562                             : en:Chapter 08
    01:12:53.077                             : en:Chapter 09
    01:23:08.900                             : en:Chapter 10
    01:32:34.131                             : en:Chapter 11
    01:42:53.584                             : en:Chapter 12
    01:45:46.214                             : en:Chapter 13

    Скриншоты:
    pb.wtf



  • Скачать Грань будущего через торрент http://pic.kartinco.top/images/6/stazu.jpg Скачать фильм Грань будущего через торрент бесплантно в хорошем качестве Описание:В недалёком будущем раса инопланетян вторгается на Землю. Никакая армия в мире не может противостоять им. Майор Уильям Кейдж ... 10 10 44
    Info! Золотая раздача, скачанное не засчитывается.
    Торрент: Зарегистрирован [2015-04-03 20:17] · скачан: 853 раз
    Статус: √ проверено
    Размер: 14.64 GB
    Как cкачать? Как скачать Грань будущего через торрент | qTorrent

    % Раздел Тема Автор DL S | L
    Фильмы [HD 720p, 1080p] (Хороший звук DUB, MVO) [ 6.78 GB ] Грань будущего / Edge of Tomorrow [2014 BDRip-HEVC 1080p ] DUB [] bober100 Скачать
    1 | 0
    Ultra HD (UHD: 2K, 4K, 8K) — видео сверхвысокой чёткости [ 34.35 GB ] Грань будущего / Edge of Tomorrow [2014 UHD WEB-DL 2160p] 3xAVO+DUB [] bober100 Скачать
    2 | 0
    Фильмы 2014 [DVDrip, WEB-DLRip, HDrip] [ 1.46 GB ] Грань будущего / Edge of Tomorrow [2014 BDRip-AVC] DUB potroks Скачать
    1 | 0
    3D Фильмы [ 28.44 GB ] Грань будущего / Edge of Tomorrow [2014 BD Remux 2D 3D] DUB Ворон Скачать
    1 | 0

    28-11-2019 20:33  

    Отключить всю рекламу на сайте

    28-09-2014 02:56 Грань будущего Скачать торрент  

    Лучший фантастический экшн последних лет. Не пропустите.pb.wtf



    02-10-2014 18:38 Грань будущего Скачать торрент  

    Shum4Xer писал(а):

    Лучший фантастический экшн последних лет. Не пропустите.

    Абсолютно нечего возразить=)))pb.wtf



    04-04-2015 00:38 Грань будущего Скачать торрент  

    Полностью согласен.
    Один из лучших фильмов 2014 из данного жанра.
    Спасибо за раздачу.pb.wtf



    04-04-2015 07:18 Грань будущего Скачать торрент  

    Благодарствую!!!pb.wtf



    04-04-2015 11:08 Грань будущего Скачать торрент  

    Да фильм действительно хороший можно пересматривать и добавить в коллекцию) pb.wtf



    04-04-2015 21:06 Грань будущего Скачать торрент  

    есть на 720. но с лучшим качеством перекачаю. спасибоpb.wtf



    26-06-2015 17:04 Грань будущего Скачать торрент  

    Ворон, спасибо за раздачу!pb.wtf



    01-02-2016 15:04 Грань будущего Скачать торрент  

    Офигенный фильмец!!!!pb.wtf



      Дорогой пользователь! Огромная просьба, поблагодарите релизера, оцените раздачу и оставьте свои комментарий, если Вы скачали Грань будущего через торрент бесплатно! Внесите свою лепту в развитие PiratBit!
      Комментировать посты могут только пользователи прошедшие не сложную регистрацию
      Показать сообщения:    

      Грань будущего через торрент
      Скачать бесплатно Грань будущего
      Грань будущего скачать торрент
      Грань будущего смотреть онлайн
      Cкачать фильм Грань будущего бесплатно
      Грань будущего скачать торрент в хорошем качестве
      Грань будущего смотреть онлайн бесплатно в хорошем качестве


      Вы не можете начинать темы
      Вы не можете отвечать на сообщения
      Вы не можете редактировать свои сообщения
      Вы не можете удалять свои сообщения
      Вы не можете голосовать в опросах
      Вы не можете прикреплять файлы к сообщениям
      Вы можете скачивать файлы