Ссылка на приватное зеркало нашего сайта всего за 1$. Внимание количество ограничено!!!

2 сезон

iTunes

1 сезон

1

2 сезон

2 сезон

iTunes

1 сезон

RePack

30

Ultimate

ВАЖНО

ИГРА 18+

pack

RePack

MK11
pack

Забери бонус

RePack

jed

!!Акция!!

Alien_Rage

RePack

fifa19

RePack

Assassins Creed: Odyssey

RePack

NEED FOR SPEED™ PAYBACK

4 сезон

9 сезон

Бесстыжие 9 сезон

Все сериалы

все сериалы на PB.wtf

RePack

FAR CRY 5
  

Олимп / Olympus / Сезон: 1 / Серии 1-13 из 13 (Аманда Таппинг / Amanda Tapping, Ник Уиллинг / Nick Willing) [2015, Великобритания, Канада, фэнтези, BDRip] MVO [BaibaKo] pb.wtf

Олимп через торрент pb.wtf

Размер: 5.19 GB | Добавлен: 4 года 2 мес. назад | Торрент скачан:61 раз
Скачать  

04-04-2015 02:04 Олимп Скачать торрент  

Олимп / Olympus


  • Год выпуска: 2015
  • Страна: Великобритания, Канада
  • Жанр: фэнтези
  • Продолжительность: 00:43:10 (Серия)
  • Перевод: Профессиональный многоголосый закадровый) [BaibaKo]

  • Режиссер: Аманда Таппинг / Amanda Tapping, Ник Уиллинг / Nick Willing
  • В ролях:

    Сонита Генри (Medea), Уэйн Барнс (Lykos), Грэхэм Шилз (King Aegeus), Кэс Анвар (Xerxes), Мэтт Фрюэр (Daedalus), Джон Эммет Трэйси (Pallas), Софиа Локлин Херт (Ariadne), Леви Миден (Kimon), Дэвид Франко (Priest Kre Kre), Полин Иган (Aethra), Джессика Хэрмон (Chalciope), Сачин Сахель (Spy Scribe)

  • Описание:
    Несколько храбрых мужчин и женщин изгнали богов в потусторонний мир ─ место, названное Подземным Миром или ЦарствоАида м. В 2015 г. до нашей эры один неопытный молодой человек отправляется спасать оракула храма Геи. Ему предстоит испытать любовь, предательство, разочарование и изгнание. Пройдя тяжелый путь, он превращается в безжалостного лидера, чету самим богам.
  • Рейтинг:



  • Качество: BDRip
  • Формат: :AVI
  • Видео кодек: XviD
  • Аудио кодек: MP3
  • Видео: 938 Кбит/сек, 720*400 (16:9), в 23,976 (24000/1001) кадра/сек, MPEG-4 Visual (XviD)
  • Аудио №1: Русский 256 Кбит/сек, 48,0 КГц, 2 канала, MPEG Audio (MP3)
  • Аудио №2: Английский 256 Кбит/сек, 48,0 КГц, 2 канала, MPEG Audio (MP3)
  • Релиз от: GEKADOL

    Код:

    Внимание! Раздача ведётся путём добавления новых серий; при каждом добавлении создаётся новый торрент. Чтобы начать докачку новой серии, пользователям необходимо сделать следующее:
    (1) остановить скачивание,
    (2) удалить старый торрент у себя из клиента (старые серии удалять не надо),
    (3) скачать новый торрент и запустить его у себя в клиенте вместо старого, при этом указать клиенту путь в старую папку куда и должно происходить скачивание новых серий.
    Ваш клиент при этом должен произвести хеширование (проверку) старой папки (если не производит сам - помогите ему сделать это), и будет докачивать только те серии которых у вас ещё нет. Старые серии при этом не удаляются, а продолжают раздаваться!
    Eсли вы уже удалили старые серии, то предотвратить повторную закачку старых серий можно, отжав галочку в соответствующих местах при запуске нового торрента. По возможности, желательно не удалять старые серии как можно дольше чтобы релизёр не столько продолжал раздавать старые серии, а смог сконцентрироваться на новых.


    Код:

    Общее
    Полное имя                               : K:\Олимп 2015\Olympus.s01e05.BDRip-AVC.Rus.Eng.BaibaKo.tv.avi
    Формат                                   : AVI
    Формат/Информация                        : Audio Video Interleave
    Размер файла                             : 449 Мбайт
    Продолжительность                        : 42 м.
    Общий поток                              : 1471 Кбит/сек
    Программа кодирования                    : Lavf57.41.100

    Видео
    Идентификатор                            : 0
    Формат                                   : MPEG-4 Visual
    Профиль формата                          : Advanced Simple@L5
    Параметр BVOP формата                    : 1
    Параметр QPel формата                    : Нет
    Параметр GMC формата                     : Без точки перехода
    Параметр матрицы формата                 : Default (H.263)
    Идентификатор кодека                     : XVID
    Идентификатор кодека/Подсказка           : XviD
    Продолжительность                        : 42 м.
    Битрейт                                  : 938 Кбит/сек
    Ширина                                   : 720 пикселей
    Высота                                   : 400 пикселей
    Соотношение сторон                       : 16:9
    Частота кадров                           : 23,976 (24000/1001) кадра/сек
    Цветовое пространство                    : YUV
    Субдискретизация насыщенности            : 4:2:0
    Битовая глубина                          : 8 бит
    Тип развёртки                            : Прогрессивная
    Метод сжатия                             : С потерями
    Бит/(Пиксели*Кадры)                      : 0.136
    Размер потока                            : 286 Мбайт (64%)
    Библиотека кодирования                   : XviD 67

    Аудио #1
    Идентификатор                            : 1
    Формат                                   : MPEG Audio
    Версия формата                           : Version 1
    Профиль формата                          : Layer 3
    Режим                                    : Joint stereo
    Расширение режима                        : MS Stereo
    Идентификатор кодека                     : 55
    Идентификатор кодека/Подсказка           : MP3
    Продолжительность                        : 42 м.
    Вид битрейта                             : Постоянный
    Битрейт                                  : 256 Кбит/сек
    Каналы                                   : 2 канала
    Частота                                  : 48,0 КГц
    Метод сжатия                             : С потерями
    Размер потока                            : 78,1 Мбайт (17%)
    Выравнивание                             : Соединение по промежуткам
    Продолжительность промежутка             : 24  мс. (0,58 видеокадр)
    Библиотека кодирования                   : LAME3.99.5

    Аудио #2
    Идентификатор                            : 2
    Формат                                   : MPEG Audio
    Версия формата                           : Version 1
    Профиль формата                          : Layer 3
    Режим                                    : Joint stereo
    Расширение режима                        : MS Stereo
    Идентификатор кодека                     : 55
    Идентификатор кодека/Подсказка           : MP3
    Продолжительность                        : 42 м.
    Вид битрейта                             : Постоянный
    Битрейт                                  : 256 Кбит/сек
    Каналы                                   : 2 канала
    Частота                                  : 48,0 КГц
    Метод сжатия                             : С потерями
    Размер потока                            : 78,1 Мбайт (17%)
    Выравнивание                             : Соединение по промежуткам
    Продолжительность промежутка             : 24  мс. (0,58 видеокадр)
    Библиотека кодирования                   : LAME3.99.5ЄЄЄЄЄЄЄЄЄЄ




    Скриншоты:
    скриншот   скриншот   скриншот   скриншот   скриншот   скриншот   скриншот  
    скриншот  

    Раздача ведётся путём добавления новых серий. Добавлена 13 серия (30.09.2016).Просьба перекачать торрент файл.

    pb.wtf



  • Скачать Олимп через торрент http://i57.fastpic.ru/big/2015/0404/6a/702c8bfb6ee292e912218a06b568d66a.jpg Скачать фильм Олимп через торрент бесплантно в хорошем качестве Описание: Несколько храбрых мужчин и женщин изгнали богов в потусторонний мир ─ место, названное Подземным Миром или ЦарствоАида м. В 2015 ... 7.5 10 13
    Info! Золотая раздача, скачанное не засчитывается.
    Торрент: Зарегистрирован [2016-09-30 11:37] · скачан: 61 раз
    Статус: √ проверено
    Размер: 5.19 GB
    Как cкачать? Как скачать Олимп через торрент | qTorrent

    % Раздел Тема Автор DL S | L
    Зарубежные сериалы [ 7.48 GB ] Олимп / Olympus / 1 сезон / 1-13 серии из 13 [2015 HDTVRip] MVO [Jaskier] bober100 Скачать
    1 | 0
    Зарубежные сериалы [ 31.51 GB ] Олимп / Olympus / Сезон: 1 / Серии 1-13 из 13 [2015 BDRip-720р] MVO [BaibaKo] GEKADOL Скачать
    1 | 0


    Последний раз редактировалось: GEKADOL (2016-09-30 11:37), всего редактировалось 5 раз(а)

    28-11-2019 20:33  

    Отключить всю рекламу на сайте

    04-04-2015 11:37 Олимп Скачать торрент  

    Какой же убогий сериал... Но автору спасибо.pb.wtf



    12-04-2015 18:00 Олимп Скачать торрент  

    Долбаные боги...:)pb.wtf



    30-09-2016 11:38 Олимп Скачать торрент  

    Доделали спустя год pb.wtf



      Дорогой пользователь! Огромная просьба, поблагодарите релизера, оцените раздачу и оставьте свои комментарий, если Вы скачали Олимп через торрент бесплатно! Внесите свою лепту в развитие PiratBit!
      Комментировать посты могут только пользователи прошедшие не сложную регистрацию
      Показать сообщения:    

      Олимп через торрент
      Скачать бесплатно Олимп
      Олимп скачать торрент
      Олимп смотреть онлайн
      Cкачать фильм Олимп бесплатно
      Олимп скачать торрент в хорошем качестве
      Олимп смотреть онлайн бесплатно в хорошем качестве


      Вы не можете начинать темы
      Вы не можете отвечать на сообщения
      Вы не можете редактировать свои сообщения
      Вы не можете удалять свои сообщения
      Вы не можете голосовать в опросах
      Вы не можете прикреплять файлы к сообщениям
      Вы можете скачивать файлы