Ссылка на приватное зеркало нашего сайта всего за 1$. Внимание количество ограничено!!!

2 сезон

iTunes

1 сезон

1

2 сезон

2 сезон

iTunes

1 сезон

RePack

30

Новинка

ВАЖНО

ИГРА 18+

pack

RePack

MK11
pack

Забери бонус

RePack

jed

!!Акция!!

Alien_Rage

RePack

fifa19

RePack

Assassins Creed: Odyssey

RePack

NEED FOR SPEED™ PAYBACK

4 сезон

9 сезон

Бесстыжие 9 сезон

Все сериалы

все сериалы на PB.wtf

RePack

FAR CRY 5
  

Олимп / Olympus / Сезон: 1 / Серии 1-4 из 13 (Аманда Таппинг / Amanda Tapping, Ник Уиллинг / Nick Willing) [2015, Великобритания, Канада, фэнтези, HDTV 720р, MVO] [BaibaKo] pb.wtf

Скачать  

04-04-2015 02:11 Олимп Скачать торрент  

Олимп / Olympus


  • Год выпуска: 2015
  • Страна: Великобритания, Канада
  • Жанр: фэнтези
  • Продолжительность: 00:43:10 (Серия)
  • Перевод: Профессиональный многоголосый закадровый) [BaibaKo]

  • Режиссер: Аманда Таппинг / Amanda Tapping, Ник Уиллинг / Nick Willing
  • В ролях:

    Сонита Генри (Medea), Уэйн Барнс (Lykos), Грэхэм Шилз (King Aegeus), Кэс Анвар (Xerxes), Мэтт Фрюэр (Daedalus), Джон Эммет Трэйси (Pallas), Софиа Локлин Херт (Ariadne), Леви Миден (Kimon), Дэвид Франко (Priest Kre Kre), Полин Иган (Aethra), Джессика Хэрмон (Chalciope), Сачин Сахель (Spy Scribe)

  • Описание:
    Несколько храбрых мужчин и женщин изгнали богов в потусторонний мир ─ место, названное Подземным Миром или ЦарствоАида м. В 2015 г. до нашей эры один неопытный молодой человек отправляется спасать оракула храма Геи. Ему предстоит испытать любовь, предательство, разочарование и изгнание. Пройдя тяжелый путь, он превращается в безжалостного лидера, чету самим богам.
  • Рейтинг:



  • Качество: HDTV 720р
  • Формат: :MKV
  • Видео кодек: AVC
  • Аудио кодек: AC3
  • Видео: 1280x720 (16:9), 2408 kbps, 23,976 fps, 0,109 bpp
  • Аудио №1: русский / 5.1 / 48 kHz / 384 kbps / 16 bit
  • Аудио №2: английский / 5.1 / 48 kHz / 384 kbps / 16 bit
  • Релиз от: GEKADOL

    Код:

    Внимание! Раздача ведётся путём добавления новых серий; при каждом добавлении создаётся новый торрент. Чтобы начать докачку новой серии, пользователям необходимо сделать следующее:
    (1) остановить скачивание,
    (2) удалить старый торрент у себя из клиента (старые серии удалять не надо),
    (3) скачать новый торрент и запустить его у себя в клиенте вместо старого, при этом указать клиенту путь в старую папку куда и должно происходить скачивание новых серий.
    Ваш клиент при этом должен произвести хеширование (проверку) старой папки (если не производит сам - помогите ему сделать это), и будет докачивать только те серии которых у вас ещё нет. Старые серии при этом не удаляются, а продолжают раздаваться!
    Eсли вы уже удалили старые серии, то предотвратить повторную закачку старых серий можно, отжав галочку в соответствующих местах при запуске нового торрента. По возможности, желательно не удалять старые серии как можно дольше чтобы релизёр не столько продолжал раздавать старые серии, а смог сконцентрироваться на новых.


    Код:

    General
    Unique ID                                : 198284643426366979601239404962803939526 (0x952C3BB4E040E9129770FAEEEB08F8C6)
    Complete name                            : I:\Olympus.s01e01.HDTV720p.Rus.Eng.BaibaKo.tv.mkv
    Format                                   : Matroska
    Format version                           : Version 4 / Version 2
    File size                                : 998 MiB
    Duration                                 : 43mn 10s
    Overall bit rate                         : 3 233 Kbps
    Encoded date                             : UTC 2015-04-03 15:34:04
    Writing application                      : mkvmerge v7.4.0 ('Circles') 64bit built on Dec 12 2014 12:19:56
    Writing library                          : libebml v1.3.0 + libmatroska v1.4.1
    DURATION                                 : 00:43:10.368000000
    NUMBER_OF_FRAMES                         : 80949
    NUMBER_OF_BYTES                          : 124337664
    _STATISTICS_WRITING_APP                  : mkvmerge v7.4.0 ('Circles') 64bit built on Dec 12 2014 12:19:56
    _STATISTICS_WRITING_DATE_UTC             : 2015-04-03 15:34:04
    _STATISTICS_TAGS                         : BPS DURATION NUMBER_OF_FRAMES NUMBER_OF_BYTES

    Video
    ID                                       : 1
    Format                                   : AVC
    Format/Info                              : Advanced Video Codec
    Format profile                           : High@L4.1
    Format settings, CABAC                   : Yes
    Format settings, ReFrames                : 5 frames
    Codec ID                                 : V_MPEG4/ISO/AVC
    Duration                                 : 43mn 10s
    Bit rate                                 : 2 408 Kbps
    Width                                    : 1 280 pixels
    Height                                   : 720 pixels
    Display aspect ratio                     : 16:9
    Frame rate                               : 23.976 fps
    Color space                              : YUV
    Chroma subsampling                       : 4:2:0
    Bit depth                                : 8 bits
    Scan type                                : Progressive
    Bits/(Pixel*Frame)                       : 0.109
    Stream size                              : 741 MiB (74%)
    Writing library                          : x264 core 146 r2538 121396c
    Encoding settings                        : cabac=1 / ref=5 / deblock=1:0:0 / analyse=0x3:0x113 / me=umh / subme=8 / psy=1 / psy_rd=1.00:0.00 / mixed_ref=1 / me_range=16 / chroma_me=1 / trellis=1 / 8x8dct=1 / cqm=0 / deadzone=21,11 / fast_pskip=1 / chroma_qp_offset=-2 / threads=24 / lookahead_threads=4 / sliced_threads=0 / nr=0 / decimate=1 / interlaced=0 / bluray_compat=0 / constrained_intra=0 / bframes=3 / b_pyramid=2 / b_adapt=2 / b_bias=0 / direct=3 / weightb=1 / open_gop=0 / weightp=2 / keyint=250 / keyint_min=23 / scenecut=40 / intra_refresh=0 / rc_lookahead=50 / rc=crf / mbtree=1 / crf=18.0 / qcomp=0.60 / qpmin=0 / qpmax=69 / qpstep=4 / ip_ratio=1.40 / aq=1:1.00
    Language                                 : English
    Default                                  : No
    Forced                                   : No
    Matrix coefficients                      : BT.709-5, BT.1361, IEC 61966-2-4 709, SMPTE RP177

    Audio #1
    ID                                       : 2
    Format                                   : AC-3
    Format/Info                              : Audio Coding 3
    Mode extension                           : CM (complete main)
    Codec ID                                 : A_AC3
    Duration                                 : 43mn 10s
    Bit rate mode                            : Constant
    Bit rate                                 : 384 Kbps
    Channel(s)                               : 6 channels
    Channel positions                        : Front: L C R, Side: L R, LFE
    Sampling rate                            : 48.0 KHz
    Bit depth                                : 16 bits
    Compression mode                         : Lossy
    Stream size                              : 119 MiB (12%)
    Language                                 : Russian
    Default                                  : Yes
    Forced                                   : No

    Audio #2
    ID                                       : 3
    Format                                   : AC-3
    Format/Info                              : Audio Coding 3
    Mode extension                           : CM (complete main)
    Codec ID                                 : A_AC3
    Duration                                 : 43mn 10s
    Bit rate mode                            : Constant
    Bit rate                                 : 384 Kbps
    Channel(s)                               : 6 channels
    Channel positions                        : Front: L C R, Side: L R, LFE
    Sampling rate                            : 48.0 KHz
    Bit depth                                : 16 bits
    Compression mode                         : Lossy
    Stream size                              : 119 MiB (12%)
    Language                                 : English
    Default                                  : No
    Forced                                   : No




    Скриншоты:
    скриншот   скриншот   скриншот   скриншот   скриншот  
    скриншот  

    Раздача ведётся путём добавления новых серий. Добавлена 4 серия (27.04.2015).Просьба перекачать торрент файл.

    pb.wtf



  • Торрент не зареган: Не зарегистрирован ||
    Добавлен: 2015-04-27 02:07
    Скачано: 363 раз


    Последний раз редактировалось: GEKADOL (2015-04-27 02:07), всего редактировалось 1 раз

    28-11-2019 20:33  

    Отключить всю рекламу на сайте

    19-04-2015 08:32 Олимп Скачать торрент  

    чет рейтинг низковат а по трейлеру вроде норм,и кровь и секс есть :declare: надо глянуть наверное или он сомсем "школьный"?pb.wtf



      Дорогой пользователь! Огромная просьба, поблагодарите релизера, оцените раздачу и оставьте свои комментарий, если Вы скачали Олимп через торрент бесплатно! Внесите свою лепту в развитие PiratBit!
      Комментировать посты могут только пользователи прошедшие не сложную регистрацию
      Показать сообщения:    

      Олимп через торрент
      Скачать бесплатно Олимп
      Олимп скачать торрент
      Олимп смотреть онлайн
      Cкачать фильм Олимп бесплатно
      Олимп скачать торрент в хорошем качестве
      Олимп смотреть онлайн бесплатно в хорошем качестве


      Вы не можете начинать темы
      Вы не можете отвечать на сообщения
      Вы не можете редактировать свои сообщения
      Вы не можете удалять свои сообщения
      Вы не можете голосовать в опросах
      Вы не можете прикреплять файлы к сообщениям
      Вы можете скачивать файлы