2 сезон

iTunes

MVO

1

2 сезон

iTunes

iTunes

1 сезон

RePack

30

Новинка

ВАЖНО

ИГРА 18+

pack

RePack

MK11
pack

Легкие деньги

RePack

jed

RePack

fifa19

RePack

RDR2

RePack

NEED FOR SPEED™ PAYBACK

4 сезон

9 сезон

Бесстыжие 9 сезон

Все сериалы

все сериалы на PB.wtf

RePack

FAR CRY 5

Anonymous, доброй ночи, мы не успеваем собрать деньги на оплату серверов за декабрь и январь, помогите нам пожалуйста в это трудное время. В качестве благодарности мы отключим Вам всю рекламу на сайте (укажите свой ник в строку Ваше имя)!

×
  
Magnet ссылка

Кровавый спорт / Bloodsport (Ньют Арнольд) [1988 г., драма, спорт, биография, боевик, BDRip 720p] (60 fps) 2x DVO (R5, НТВ) + MVO + Original Eng pb.wtf

Кровавый спорт через торрент pb.wtf

Размер: 3.82 GB | Добавлен: 5 лет 9 мес. назад | Торрент скачан:254 раза
Скачать  

05-04-2015 14:26 Кровавый спорт Скачать торрент  

Кровавый спорт / Bloodsport
Год выпуска: 1988
Страна: США
Жанр: драма, спорт, биография, боевик
Продолжительность: 01:32:13
Перевод: 2x Профессиональный двухголосый (R5, НТВ); Профессиональный многоголосый
Субтитры: Russian, English

Режиссер: Ньют Арнольд
Продюссер: Марк ДиСалле, Йорам Глобус, Менахем Голан
Сценарий: Шелдон Леттич, Кристофер Косби, Мэл Фридман

Бюджет: $1 500 000
Премьера в мире: 26 февраля 1988

IMDB 6.80 (50 248)


В ролях: Жан-Клод Ван Дамм, Боло Йенг, Форест Уитакер, Дональд Гибб, Леа Эйрс, Норман Бёртон, Рой Чяо, Филип Чань, Пьер Рафини, Кен Сиу

Описание: В Гонконге должны состояться подпольные соревнования по восточным единоборствам, к которым готовится и один из американских военнослужащих. В свое время, будучи ребенком, он стал приемным сыном японца- учителя каратэ, достиг совершенства путем упорных тренировок и в знак успеха получил священный японский меч.Он самовольно оставляет воинскую часть и отправляется в Гонконг на «Кумите». По следам молодого человека идет ФБР. Несмотря на все преграды, возникающие на пути каратиста, ему удается добиться победы и вступить в Братство Черного Дракона...

Качество: BDRip 720p
Формат: MKV
Видео кодек: H.264
Аудио кодек: AC3
Видео: x264, 1280 x 720 (16:9), 4656 kbps, 59,880 fps, ( 0.084 bpp)
Аудио#1: AC-3, 48.0 KHz, 2 ch, 192 Kbps (Russian (Двухголосый (R5))
Аудио#2: AC-3, 48.0 KHz, 2 ch, 192 Kbps (Russian (Двухголосый (НТВ))
Аудио#3: AC-3, 48.0 KHz, 2 ch, 192 Kbps (Russian (Многоголосый))
Аудио#4: AC-3, 48.0 KHz, 2 ch, 384 Kbps (English )



скриншот   скриншот   скриншот   скриншот   скриншот   скриншот  

Автор рипа:slaventi-69
x264 [info]: frame I:1980 Avg QP:16.33 size:100589
x264 [info]: frame P:89073 Avg QP:19.13 size: 23234
x264 [info]: frame B:240625 Avg QP:22.49 size: 4261
x264 [info]: consecutive B-frames: 3.1% 6.5% 16.2% 16.9% 57.2%


Общее
Уникальный идентификатор : 206501662683419227618101978312150303631 (0x9B5AC608DD8969CFA418618388CB438F)
Полное имя : E:\Bloodsport.(1988).BDRip.720p.(60 Fps).mkv
Формат : Matroska
Версия формата : Version 4 / Version 2
Размер файла : 3,82 Гбайт
Продолжительность : 1 ч. 32 м.
Общий поток : 5926 Кбит/сек
Название фильма : Кровавый спорт / Bloodsport (1988) BDRip 720p ( 60 Fps )
Дата кодирования : UTC 2015-04-05 09:58:26
Программа кодирования : mkvmerge v6.2.0 ('Promised Land') built on Apr 28 2013 12:22:01
Библиотека кодирования : libebml v1.3.0 + libmatroska v1.4.0

Видео
Идентификатор : 1
Формат : AVC
Формат/Информация : Advanced Video Codec
Профиль формата : High@L4.1
Параметр CABAC формата : Да
Параметр ReFrames формата : 4 кадра
Идентификатор кодека : V_MPEG4/ISO/AVC
Продолжительность : 1 ч. 32 м.
Битрейт : 4656 Кбит/сек
Ширина : 1280 пикселей
Высота : 720 пикселей
Соотношение сторон : 16:9
Режим частоты кадров : Постоянный
Частота кадров : 59,880 кадров/сек
Частота кадров в оригинале : 59,940 кадров/сек
Цветовое пространство : YUV
Субдискретизация насыщенности : 4:2:0
Битовая глубина : 8 бит
Тип развёртки : Прогрессивная
Бит/(Пиксели*Кадры) : 0.084
Размер потока : 3,00 Гбайт (79%)
Заголовок : Bloodsport (1988) BDRip 720p ( 60 Fps ).mkv
Библиотека кодирования : x264 core 130 r2273 b3065e6
Настройки программы : cabac=1 / ref=4 / deblock=1:-1:-1 / analyse=0x3:0x113 / me=umh / subme=9 / psy=1 / psy_rd=1.00:0.00 / mixed_ref=1 / me_range=24 / chroma_me=1 / trellis=2 / 8x8dct=1 / cqm=0 / deadzone=21,11 / fast_pskip=1 / chroma_qp_offset=-2 / threads=3 / lookahead_threads=1 / sliced_threads=0 / nr=0 / decimate=1 / interlaced=0 / bluray_compat=0 / constrained_intra=0 / bframes=4 / b_pyramid=2 / b_adapt=2 / b_bias=0 / direct=1 / weightb=1 / open_gop=0 / weightp=2 / keyint=250 / keyint_min=25 / scenecut=40 / intra_refresh=0 / rc_lookahead=50 / rc=crf / mbtree=1 / crf=17.0 / qcomp=0.60 / qpmin=0 / qpmax=69 / qpstep=4 / ip_ratio=1.40 / aq=1:1.00
Язык : English
Default : Да
Forced : Нет

Аудио #1
Идентификатор : 2
Формат : AC-3
Формат/Информация : Audio Coding 3
Расширение режима : CM (complete main)
Параметр Endianness формата : Big
Идентификатор кодека : A_AC3
Продолжительность : 1 ч. 32 м.
Вид битрейта : Постоянный
Битрейт : 192 Кбит/сек
Каналы : 2 канала
Расположение каналов : Front: L R
Частота : 48,0 КГц
Битовая глубина : 16 бит
Метод сжатия : С потерями
Размер потока : 127 Мбайт (3%)
Заголовок : Двухголосый (R5)
Язык : Russian
Default : Да
Forced : Нет

Аудио #2
Идентификатор : 3
Формат : AC-3
Формат/Информация : Audio Coding 3
Расширение режима : CM (complete main)
Параметр Endianness формата : Big
Идентификатор кодека : A_AC3
Продолжительность : 1 ч. 32 м.
Вид битрейта : Постоянный
Битрейт : 192 Кбит/сек
Каналы : 2 канала
Расположение каналов : Front: L R
Частота : 48,0 КГц
Битовая глубина : 16 бит
Метод сжатия : С потерями
Размер потока : 127 Мбайт (3%)
Заголовок : Двухголосый (НТВ)
Язык : Russian
Default : Нет
Forced : Нет

Аудио #3
Идентификатор : 4
Формат : AC-3
Формат/Информация : Audio Coding 3
Расширение режима : CM (complete main)
Параметр Endianness формата : Big
Идентификатор кодека : A_AC3
Продолжительность : 1 ч. 32 м.
Вид битрейта : Постоянный
Битрейт : 384 Кбит/сек
Каналы : 2 канала
Расположение каналов : Front: L R
Частота : 48,0 КГц
Битовая глубина : 16 бит
Метод сжатия : С потерями
Размер потока : 253 Мбайт (6%)
Заголовок : Многоголосый
Язык : Russian
Default : Нет
Forced : Нет

Аудио #4
Идентификатор : 5
Формат : AC-3
Формат/Информация : Audio Coding 3
Расширение режима : CM (complete main)
Параметр Endianness формата : Big
Идентификатор кодека : A_AC3
Продолжительность : 1 ч. 32 м.
Вид битрейта : Постоянный
Битрейт : 384 Кбит/сек
Каналы : 2 канала
Расположение каналов : Front: L R
Частота : 48,0 КГц
Битовая глубина : 16 бит
Метод сжатия : С потерями
Размер потока : 253 Мбайт (6%)
Заголовок : English
Язык : English
Default : Нет
Forced : Нет

Текст #1
Идентификатор : 6
Формат : PGS
Режим смешивания : zlib
Идентификатор кодека : S_HDMV/PGS
Идентификатор кодека/Информация : The same subtitle format used on BDs/HD-DVDs
Заголовок : Русские
Язык : Russian
Default : Нет
Forced : Нет

Текст #2
Идентификатор : 7
Формат : PGS
Режим смешивания : zlib
Идентификатор кодека : S_HDMV/PGS
Идентификатор кодека/Информация : The same subtitle format used on BDs/HD-DVDs
Заголовок : Английские
Язык : English
Default : Нет
Forced : Нет


Кровавый спорт скачать торрент


pb.wtf



Скачать Кровавый спорт через торрент http://pic.kartinco.top/images/11/g3yon.jpg Скачать фильм Кровавый спорт через торрент бесплантно в хорошем качестве Описание: В е должны состояться подпольные соревнования по восточным единоборствам, к которым готовится и один из американских ... 10 10 30
Info! Золотая раздача, скачанное не засчитывается.
Торрент: Зарегистрирован [2015-04-05 14:26] · скачан: 254 раз
Статус: √ проверено
Размер: 3.82 GB
Как cкачать? Как скачать Кровавый спорт через торрент | UTorrent

% Раздел Тема Автор DL S | L
Фильмы до 2000 г. [ 1.46 GB ] Кровавый / Bloodsport [1988 Биография Спорт BDRip MVO + Original Eng] Ворон Скачать
1 | 0


Последний раз редактировалось: slaventi-69 (2015-04-06 13:39), всего редактировалось 2 раз(а)

28-11-2019 20:33  

Отключить всю рекламу на сайте

05-04-2015 14:37 Кровавый спорт Скачать торрент  

Офигенный кин! ! ! ! !
Ставлю "+" без всяких разговоров!!!!! pb.wtf



05-04-2015 18:03 Кровавый спорт Скачать торрент  

А можно картинку 1920*1080 и битрейт чуток больше при 60fps ???pb.wtf



05-04-2015 18:18 Кровавый спорт Скачать торрент  

Очень жаль что не 1080. 720 качество не тянет на 60fps Битрейт очень низкий .pb.wtf



05-04-2015 22:17 Кровавый спорт Скачать торрент  

Это фильм моего детства, наверное первый что я смотрел на VHSpb.wtf



06-04-2015 06:20 Кровавый спорт Скачать торрент  

Офигеть , может я и старый пень в свои 42 , но фильмов уже таких не снимают. Вроде тупой фильм ни про что. Но как и наши старые, неповторим. А скорее всего детские герои(вандам,шварц,сталоне,брюс, и брюс ли) эх романтика!pb.wtf



06-04-2015 08:20 Кровавый спорт Скачать торрент  

slaventi-69, Почему опять не указан автор рипа? в сети кодировкой с технологией 60 fps, занимаются пару человек. Если рип Ва указывайте это.pb.wtf



06-04-2015 13:33 Кровавый спорт Скачать торрент  

Ворон писал(а):

slaventi-69, Почему опять не указан автор рипа? в сети кодировкой с технологией 60 fps, занимаются пару человек. Если рип Ва указывайте это.

Простите. Rip - Мой. Где лучше указывать?pb.wtf



06-04-2015 17:31 Кровавый спорт Скачать торрент  

slaventi-69, Спасибо! То, что надо! :)pb.wtf



07-04-2015 05:35 Кровавый спорт Скачать торрент  

Спасибо заценим не мешало бы для полной ностальгии пару любит. переводовpb.wtf



    Дорогой пользователь! Огромная просьба, поблагодарите релизера, оцените раздачу и оставьте свои комментарий, если Вы скачали Кровавый спорт через торрент бесплатно! Внесите свою лепту в развитие PiratBit!
    Комментировать посты могут только пользователи прошедшие не сложную регистрацию
    Показать сообщения:    

    Кровавый спорт через торрент
    Скачать бесплатно Кровавый спорт
    Кровавый спорт скачать торрент
    Кровавый спорт смотреть онлайн
    Cкачать фильм Кровавый спорт бесплатно
    Кровавый спорт скачать торрент в хорошем качестве
    Кровавый спорт смотреть онлайн бесплатно в хорошем качестве


    Вы не можете начинать темы
    Вы не можете отвечать на сообщения
    Вы не можете редактировать свои сообщения
    Вы не можете удалять свои сообщения
    Вы не можете голосовать в опросах
    Вы не можете прикреплять файлы к сообщениям
    Вы можете скачивать файлы