2 сезон

iTunes

1 сезон

1

iTunes

iTunes

iTunes

1 сезон

RePack

30

ИГРА 18+

pack

ВАЖНО

!!Акция!!

Alien_RageХит недели

RePack

MK11
pack

Забери бонус

RePack

jed

!!Акция!!

Alien_Rage

RePack

fifa19

RePack

Assassins Creed: Odyssey

RePack

NEED FOR SPEED™ PAYBACK

4 сезон

9 сезон

Бесстыжие 9 сезон

Все сериалы

все сериалы на PB.wtf

RePack

FAR CRY 5
  

38 попугаев. Сборник мультфильмов (Иван Уфимцев) [1978-1991, кукольные мультфильмы, DVDRip] pb.wtf

38 попугаев. Сборник мультфильмов через торрент pb.wtf

Раздают: 1 [ 0 KB/s ]
Размер: 868 MB | Добавлен: 5 лет 6 мес. назад | Торрент скачан:100 раз
Скачать  

05-04-2015 18:03 38 попугаев. Сборник мультфильмов Скачать торрент  

38 попугаевГод выпуска: 1976 – 1991
Страна: СССР
Жанр: Мультфильм

Режиссёр: Иван Уфимцев
В ролях: Надежда Румянцева, Михаил Козаков, Василий Ливанов, Всеволод Ларионов

Длительность: 01:26:34
Перевод: Не требуется
Субтитры: Нет

Описание:
Веселые истории о забавных приключениях четырех друзей — болтливой Мартышки, застенчивого Слоненка, разумного Попугая и задумчивого Удава.



Качество: DVDRip
Формат: AVI
Видео кодек: XviD
Аудио кодек: AC-3
Видео: 1200 kbps, 704x528 (4:3), 25 fps
Аудио: 192 kbps, 2 ch, 48,0 khz

Рип от: Egorijj.Alien
1) 38 попугаев (1976)
Друзья меряют рост Удава.
2) Бабушка удава (1977)
Бабушка приехала к Удаву.
3) Как лечить удава (1977)
Удав заболел. Все хотят его вылечить. Но они не так его поняли…
4) Куда идёт слонёнок (1977)
Слонёнок идёт «например».
5) А вдруг получится! (1978)
Как друзья учили Попугая летать.
6) Привет мартышке (1978)
У Удава прекрасное настроение. Он хочет поделиться им с Мартышкой…
7) Завтра будет завтра (1979)
Все пытаются выяснить, что сегодня, а что завтра.
8) Зарядка для хвоста (1979)
Мартышка решает стать сильной, чтобы достать кокос.
9) Великое закрытие (1985)
Друзья пытаются закрыть закон «бросишь что нибудь вверх, и оно упадёт вниз, прямо на вас».
10) Ненаглядное пособие (1991)
Друзья начинают «действовать»: складывать, вычитать, умножать, делить.
General
Complete name : D:\Видео\Рип\38popugaev.avi
Format : AVI
Format/Info : Audio Video Interleave
File size : 868 MiB
Duration : 1h 26mn
Overall bit rate : 1 401 Kbps
Writing library : VirtualDubMod build 2550/release

Video
ID : 0
Format : MPEG-4 Visual
Format profile : Advanced Simple@L5
Format settings, BVOP : 2
Format settings, QPel : No
Format settings, GMC : No warppoints
Format settings, Matrix : Default (H.263)
Codec ID : XVID
Codec ID/Hint : XviD
Duration : 1h 26mn
Bit rate : 1 200 Kbps
Width : 704 pixels
Height : 528 pixels
Display aspect ratio : 4:3
Frame rate : 25.000 fps
Color space : YUV
Chroma subsampling : 4:2:0
Bit depth : 8 bits
Scan type : Progressive
Compression mode : Lossy
Bits/(Pixel*Frame) : 0.129
Stream size : 743 MiB (86%)
Writing library : XviD 1.2.1 (UTC 2008-12-04)

Audio
ID : 1
Format : AC-3
Format/Info : Audio Coding 3
Mode extension : CM (complete main)
Format settings, Endianness : Big
Codec ID : 2000
Duration : 1h 26mn
Bit rate mode : Constant
Bit rate : 192 Kbps
Channel(s) : 2 channels
Channel positions : Front: L R
Sampling rate : 48.0 KHz
Bit depth : 16 bits
Compression mode : Lossy
Stream size : 119 MiB (14%)
Alignment : Split accross interleaves
Interleave, duration : 40 ms (1.00 video frame)
Interleave, preload duration : 500 ms
pb.wtf



Скачать 38 попугаев. Сборник мультфильмов через торрент http://i60.fastpic.ru/big/2015/0405/b5/7f15ef2b95c581f91a6a61e8524e80b5.png Скачать фильм 38 попугаев. Сборник мультфильмов через торрент бесплантно в хорошем качестве Описание: Веселые истории о забавных приключениях четырех друзей — болтливой Мартышки, застенчивого Слоненка, разумного Попугая и ... 10 10 5
Info! Золотая раздача, скачанное не засчитывается.
Торрент: Зарегистрирован [2015-04-05 18:03] · скачан: 100 раз
Статус: √ проверено
Размер: 868 MB
Как cкачать? Как скачать 38 попугаев. Сборник мультфильмов через торрент | qTorrent

28-11-2019 20:33  

Отключить всю рекламу на сайте

14-07-2020 15:50 38 попугаев. Сборник мультфильмов Скачать торрент  

Есть раздающие!?!?!pb.wtf



    Дорогой пользователь! Огромная просьба, поблагодарите релизера, оцените раздачу и оставьте свои комментарий, если Вы скачали 38 попугаев. Сборник мультфильмов через торрент бесплатно! Внесите свою лепту в развитие PiratBit!
    Комментировать посты могут только пользователи прошедшие не сложную регистрацию
    Показать сообщения:    

    38 попугаев. Сборник мультфильмов через торрент
    Скачать бесплатно 38 попугаев. Сборник мультфильмов
    38 попугаев. Сборник мультфильмов скачать торрент
    38 попугаев. Сборник мультфильмов смотреть онлайн
    Cкачать фильм 38 попугаев. Сборник мультфильмов бесплатно
    38 попугаев. Сборник мультфильмов скачать торрент в хорошем качестве
    38 попугаев. Сборник мультфильмов смотреть онлайн бесплатно в хорошем качестве


    Вы не можете начинать темы
    Вы не можете отвечать на сообщения
    Вы не можете редактировать свои сообщения
    Вы не можете удалять свои сообщения
    Вы не можете голосовать в опросах
    Вы не можете прикреплять файлы к сообщениям
    Вы можете скачивать файлы