Ссылка на приватное зеркало всего за 1$. Внимание количество ограничено!!!

iTunes

iTunes

iTunes

1

iTunes

iTunes

iTunes

iTunes

iTunes

30
pack

$ от Little Big

ВАЖНО

!!Акция!!

Alien_RageХит недели

RePack

Resident Evil 21

ИГРА 18+

pack

RePack

jed

!!Акция!!

Alien_Rage

RePack

fifa19

RePack

Assassins Creed: Odyssey

RePack

NEED FOR SPEED™ PAYBACK

4 сезон

9 сезон

Бесстыжие 9 сезон

Все сериалы

все сериалы на PB.wtf

RePack

FAR CRY 5
  

Фальсификатор / The Forger (Филип Мартин / Philip Martin) [2014, США, триллер, драма, криминал, WEBRip 720р] DVO [ColdFilm] pb.wtf

Фальсификатор через торрент pb.wtf

Размер: 1.92 GB | Добавлен: 5 лет 3 мес. назад | Торрент скачан:445 раз
Скачать  

06-04-2015 12:53 Фальсификатор Скачать торрент  

Фальсификатор / The Forger
«Никогда не слишком поздно для последнего ограбления»


  • Год выпуска: 2014
  • Страна: США
  • Жанр: триллер, драма, криминал
  • Продолжительность: 01:35:31
  • Перевод: Любительский (двухголосый) [ColdFilm]

  • Режиссер: Филип Мартин / Philip Martin
  • В ролях:

    Джон Траволта (Raymond Cutter), Эбигейл Спенсер (Agent Paisley), Дженнифер Или (Kim), Кристофер Пламмер (Joseph Cutter), Энсон Маунт (Keegan), Тай Шеридан (Will Cutter), Трэвис Аарон (Detective Devlin), Линдон Смит (Melanie), Skyler Wright (Tricia), Kati Salowsky (Pretty Girl), Кристи Скотт Кэшман (Dr. Wallace), Кристина Доак (Tattoo Girl)

  • Описание:
    Главный герой фильма - Рэй Каттер - художник от бога и мошенник во втором поколении. Он договаривается о досрочном освобождении из тюремного заключения, чтобы «уйти на покой» и наладить отношения с семьей. В обмен за помощь с выходом из тюрьмы он должен выполнить еще одну работу, сделать подделку, которой до него еще никто никогда не делал.
  • Рейтинг:



  • Качество: WEBRip 720p
  • Формат: :MKV
  • Видео кодек: MPEG-4 Visual ASP
  • Аудио кодек: MP3
  • Видео: 1280x720 (16:9), 2628 kbps, 25 fps, 0,114 bpp
  • Аудио: 2.0 / 48 kHz / 192 kbps / 32 bit
  • Релиз от: GEKADOL

    Код:

    General
    Unique ID                                : 181270786384309538611111776644389554922 (0x885F7BCA322E315F677E072643F24AEA)
    Complete name                            : I:\The.Forger.WEBRip.720p.ColdFilm.mkv
    Format                                   : Matroska
    Format version                           : Version 2
    File size                                : 1.92 GiB
    Duration                                 : 1h 35mn
    Overall bit rate                         : 2 878 Kbps
    Encoded date                             : UTC 2015-04-06 08:36:48
    Writing application                      : Lavf54.63.104
    Writing library                          : Lavf54.63.104

    Video
    ID                                       : 1
    Format                                   : MPEG-4 Visual
    Format profile                           : Simple@L1
    Format settings, BVOP                    : No
    Format settings, QPel                    : No
    Format settings, GMC                     : No warppoints
    Format settings, Matrix                  : Default (H.263)
    Codec ID                                 : V_MPEG4/ISO/ASP
    Codec ID/Info                            : Advanced Simple Profile
    Duration                                 : 1h 35mn
    Bit rate                                 : 2 628 Kbps
    Width                                    : 1 280 pixels
    Height                                   : 720 pixels
    Display aspect ratio                     : 16:9
    Frame rate                               : 25.000 fps
    Color space                              : YUV
    Chroma subsampling                       : 4:2:0
    Bit depth                                : 8 bits
    Scan type                                : Progressive
    Compression mode                         : Lossy
    Bits/(Pixel*Frame)                       : 0.114
    Stream size                              : 1.75 GiB (91%)
    Writing library                          : Lavc54.92.100
    Default                                  : Yes
    Forced                                   : No

    Audio
    ID                                       : 2
    Format                                   : MPEG Audio
    Format version                           : Version 1
    Format profile                           : Layer 3
    Mode                                     : Joint stereo
    Mode extension                           : MS Stereo
    Codec ID                                 : A_MPEG/L3
    Codec ID/Hint                            : MP3
    Duration                                 : 1h 35mn
    Bit rate mode                            : Constant
    Bit rate                                 : 192 Kbps
    Channel(s)                               : 2 channels
    Sampling rate                            : 48.0 KHz
    Compression mode                         : Lossy
    Stream size                              : 131 MiB (7%)
    Writing library                          : LAME3.99.5
    Default                                  : Yes
    Forced                                   : No




    Скриншоты:



    pb.wtf



  • Скачать Фальсификатор через торрент http://i2.imageban.ru/out/2015/04/06/4e715d56b7555ba4a81368add9757cc1.jpg Скачать фильм Фальсификатор через торрент бесплантно в хорошем качестве Описание: Главный герой фильма - Рэй Каттер - художник от бога и мошенник во втором поколении. Он договаривается о досрочном освобождении ... 9.8 10 11
    Торрент: Зарегистрирован [2015-04-06 12:53] · скачан: 445 раз
    Статус: T временная
    Размер: 1.92 GB
    Как cкачать? Как скачать Фальсификатор через торрент | qTorrent

    % Раздел Тема Автор DL S | L
    T Фильмы 2014 (Звук TS, Cam, VO, DVO) [ 1.37 GB ] Фальсификатор / The Forger [2014 HDRip] [DVO] killermax2013 Скачать
    1 | 0
    Фильмы без перевода [ 1.79 GB ] Фальсификатор / The Forger [2014 WEB-Rip 720p] [ENG] killermax2013 Скачать
    1 | 0

    28-11-2019 20:33  

    Отключить всю рекламу на сайте

    06-04-2015 13:50 Фальсификатор Скачать торрент  

    Товарищи, как кинцо?pb.wtf



    06-04-2015 15:44 Фальсификатор Скачать торрент  

    GEKADOL писал(а):

    Перевод: Любительский двухголосый
    Качество: WEBRip

    T временнаяpb.wtf



      Дорогой пользователь! Огромная просьба, поблагодарите релизера, оцените раздачу и оставьте свои комментарий, если Вы скачали Фальсификатор через торрент бесплатно! Внесите свою лепту в развитие PiratBit!
      Комментировать посты могут только пользователи прошедшие не сложную регистрацию
      Показать сообщения:    

      Фальсификатор через торрент
      Скачать бесплатно Фальсификатор
      Фальсификатор скачать торрент
      Фальсификатор смотреть онлайн
      Cкачать фильм Фальсификатор бесплатно
      Фальсификатор скачать торрент в хорошем качестве
      Фальсификатор смотреть онлайн бесплатно в хорошем качестве


      Вы не можете начинать темы
      Вы не можете отвечать на сообщения
      Вы не можете редактировать свои сообщения
      Вы не можете удалять свои сообщения
      Вы не можете голосовать в опросах
      Вы не можете прикреплять файлы к сообщениям
      Вы можете скачивать файлы