Ссылка на приватное зеркало нашего сайта всего за 1$. Внимание количество ограничено!!!

2 сезон

iTunes

1 сезон

1

2 сезон

2 сезон

iTunes

1 сезон

RePack

30

Новинка

ВАЖНО

ИГРА 18+

pack

RePack

MK11
pack

Забери бонус

RePack

jed

!!Акция!!

Alien_Rage

RePack

fifa19

RePack

Assassins Creed: Odyssey

RePack

NEED FOR SPEED™ PAYBACK

4 сезон

9 сезон

Бесстыжие 9 сезон

Все сериалы

все сериалы на PB.wtf

RePack

FAR CRY 5
  

Салем / Salem / Сезон: 2 / Серии 1-13 из 13 (Дэвид Фон Энкен / David Von Ancken, Алекс Закржевский / Alex Zakrzewski, Ник Копус / Nick Copus) [2015, США, фэнтези, триллер, драма, WEB-DL 1080p, MVO] [NewStudio] pb.wtf

Салем через торрент pb.wtf

Размер: 23.09 GB | Добавлен: 5 лет 4 мес. назад | Торрент скачан:47 раз
Скачать  

07-04-2015 01:20 Салем Скачать торрент  

Салем / Salem
«Ведьмы среди нас»


  • Год выпуска: 2015
  • Страна: США
  • Жанр: фэнтези, триллер, драма
  • Продолжительность: 00:50:14 (Серия)
  • Перевод: Профессиональный многоголосый закадровый) [NewStudio]

  • Режиссер: Дэвид Фон Энкен / David Von Ancken, Алекс Закржевский / Alex Zakrzewski, Ник Копус / Nick Copus
  • В ролях:

    Шэйн Уэст (John Alden), Джанет Монтгомери (Mary Sibley), Сет Гейбл (Cotton Mather), Тэмзин Мёрчант (Anne Hale), Эшли Мадекве (Tituba), Элиз Эберли (Mercy Lewis), Иддо Голдберг (Isaac Walton), Ксандер Беркли (Magistrate Hale), Майкл Пи Гарднер (Militia Man), Джастин Лебран (Militia), Лара Грайс (Mrs. Hale), Майкл Малхерен (George Sibley)

  • Описание:
    Сериал раскрывает темную, сверхъестественную правду о Салеме — «городе ведьм». В центре сериала «Салем» — эпическая любовная драма в контексте позорного периода кровожадных судов над ведьмами в Америке. Это совершенно новый взгляд на Салем и более чем смелый взгляд на ведьм. Главный герой сериала — Джон Олден — красивый, жесткий, прагматичный ветеран, закаленный десятью годами на войне и побывавший в плену у индейцев. Он возвращается в родной город Салем и оказывается вовлеченным в жестокую охоту на ведьм.
  • Рейтинг:



  • Качество: WEB-DL 1080p
  • Формат: :MKV
  • Видео кодек: AVC
  • Аудио кодек: AC3
  • Видео: 1920x1080 (16:9), 5092 kbps, 23,976 fps, 0,102 bpp
  • Аудио №1: русский / 5.1 / 48 kHz / 384 kbps / 16 bit
  • Аудио №2: английский / 5.1 / 48 kHz / 384 kbps / 16 bit
  • Релиз от: GEKADOL

    Код:

    Внимание! Раздача ведётся путём добавления новых серий; при каждом добавлении создаётся новый торрент. Чтобы начать докачку новой серии, пользователям необходимо сделать следующее:
    (1) остановить скачивание,
    (2) удалить старый торрент у себя из клиента (старые серии удалять не надо),
    (3) скачать новый торрент и запустить его у себя в клиенте вместо старого, при этом указать клиенту путь в старую папку куда и должно происходить скачивание новых серий.
    Ваш клиент при этом должен произвести хеширование (проверку) старой папки (если не производит сам - помогите ему сделать это), и будет докачивать только те серии которых у вас ещё нет. Старые серии при этом не удаляются, а продолжают раздаваться!
    Eсли вы уже удалили старые серии, то предотвратить повторную закачку старых серий можно, отжав галочку в соответствующих местах при запуске нового торрента. По возможности, желательно не удалять старые серии как можно дольше чтобы релизёр не столько продолжал раздавать старые серии, а смог сконцентрироваться на новых.


    Код:

    General
    Unique ID                                : 202448280733125143582837297257975881626 (0x984E1EDFFE3DC454AC0E66234EC79F9A)
    Complete name                            : I:\Salem.s02e01.WEBDL.1080p.NewStudio.TV.mkv
    Format                                   : Matroska
    Format version                           : Version 2
    File size                                : 2.10 GiB
    Duration                                 : 50mn 14s
    Overall bit rate                         : 5 979 Kbps
    Encoded date                             : UTC 2015-04-06 21:36:33
    Writing application                      : mkvmerge v2.9.9 ('Tutu') built on Nov 25 2009 21:13:32
    Writing library                          : libebml v0.7.9 + libmatroska v0.8.1

    Video
    ID                                       : 1
    Format                                   : AVC
    Format/Info                              : Advanced Video Codec
    Format profile                           : High@L4.0
    Format settings, CABAC                   : Yes
    Format settings, ReFrames                : 4 frames
    Codec ID                                 : V_MPEG4/ISO/AVC
    Duration                                 : 50mn 14s
    Bit rate                                 : 5 092 Kbps
    Width                                    : 1 920 pixels
    Height                                   : 1 080 pixels
    Display aspect ratio                     : 16:9
    Frame rate                               : 23.976 fps
    Color space                              : YUV
    Chroma subsampling                       : 4:2:0
    Bit depth                                : 8 bits
    Scan type                                : Progressive
    Bits/(Pixel*Frame)                       : 0.102
    Stream size                              : 1.79 GiB (85%)
    Language                                 : English
    Default                                  : No
    Forced                                   : No
    Color primaries                          : BT.709-5, BT.1361, IEC 61966-2-4, SMPTE RP177
    Transfer characteristics                 : BT.709-5, BT.1361
    Matrix coefficients                      : BT.709-5, BT.1361, IEC 61966-2-4 709, SMPTE RP177

    Audio #1
    ID                                       : 2
    Format                                   : AC-3
    Format/Info                              : Audio Coding 3
    Mode extension                           : CM (complete main)
    Codec ID                                 : A_AC3
    Duration                                 : 50mn 14s
    Bit rate mode                            : Constant
    Bit rate                                 : 384 Kbps
    Channel(s)                               : 6 channels
    Channel positions                        : Front: L C R, Side: L R, LFE
    Sampling rate                            : 48.0 KHz
    Bit depth                                : 16 bits
    Compression mode                         : Lossy
    Stream size                              : 138 MiB (6%)
    Language                                 : Russian
    Default                                  : Yes
    Forced                                   : Yes

    Audio #2
    ID                                       : 3
    Format                                   : AC-3
    Format/Info                              : Audio Coding 3
    Mode extension                           : CM (complete main)
    Codec ID                                 : A_AC3
    Duration                                 : 50mn 14s
    Bit rate mode                            : Constant
    Bit rate                                 : 384 Kbps
    Channel(s)                               : 6 channels
    Channel positions                        : Front: L C R, Side: L R, LFE
    Sampling rate                            : 48.0 KHz
    Bit depth                                : 16 bits
    Compression mode                         : Lossy
    Stream size                              : 138 MiB (6%)
    Language                                 : English
    Default                                  : No
    Forced                                   : No




    Скриншоты:
    скриншот   скриншот   скриншот   скриншот   скриншот  
    скриншот  

    Раздача ведётся путём добавления новых серий. Добавлена 13 серия (01.07.2015).Просьба перекачать торрент файл.

    pb.wtf



  • Скачать Салем через торрент http://i58.fastpic.ru/big/2015/0407/4c/f911c9ccf9d0df007525c25d16abd54c.png Скачать фильм Салем через торрент бесплантно в хорошем качестве Описание: Сериал раскрывает темную, сверхъестественную правду о Салеме — «городе ведьм». В центре сериала «Салем» — эпическая любовная ... 10 10 22
    Info! Золотая раздача, скачанное не засчитывается.
    Торрент: Зарегистрирован [2015-07-01 01:07] · скачан: 47 раз
    Статус: √ проверено
    Размер: 23.09 GB
    Как cкачать? Как скачать Салем через торрент | qTorrent

    % Раздел Тема Автор DL S | L
    Зарубежные сериалы [ 3.04 GB ] Салем / Salem / Сезон: 2 / Серии 1-8 из 13 [2015 WEB-DLRip MVO] [LostFilm] Anonymous Скачать
    1 | 0
    Зарубежные сериалы [ 26.31 GB ] Салем / Salem / Сезон: 2 / Серии 1-13 из 13 [2015 WEB-DL 1080p] MVO GEKADOL Скачать
    1 | 0
    Зарубежные сериалы [ 6.98 GB ] Салем / Salem / Сезон: 2 / Серии 1-13 из 13 [2015 WEB-DLRip MVO] [NewStudio] GEKADOL Скачать
    1 | 0


    Последний раз редактировалось: GEKADOL (2015-07-01 01:07), всего редактировалось 16 раз(а)

    28-11-2019 20:33  

    Отключить всю рекламу на сайте

    07-04-2015 02:43 Салем Скачать торрент  

    отличное продолжение yespb.wtf



    07-04-2015 06:01 Салем Скачать торрент  

    shurgan1980 писал(а):

    отличное продолжение yes

    Будем надеяться что не сольют сериал) pb.wtf



    07-04-2015 08:38 Салем Скачать торрент  

    спасибо!!!! pb.wtf



    07-04-2015 08:57 Салем Скачать торрент  

    dark messian писал(а):

    спасибо!!!!

    Не за что) pb.wtf



    23-06-2015 09:19 Салем Скачать торрент  

    GEKADOL писал(а):

    dark messian писал(а):

    спасибо!!!!

    Не за что)

    мне понравилсяpb.wtf



      Дорогой пользователь! Огромная просьба, поблагодарите релизера, оцените раздачу и оставьте свои комментарий, если Вы скачали Салем через торрент бесплатно! Внесите свою лепту в развитие PiratBit!
      Комментировать посты могут только пользователи прошедшие не сложную регистрацию
      Показать сообщения:    

      Салем через торрент
      Скачать бесплатно Салем
      Салем скачать торрент
      Салем смотреть онлайн
      Cкачать фильм Салем бесплатно
      Салем скачать торрент в хорошем качестве
      Салем смотреть онлайн бесплатно в хорошем качестве


      Вы не можете начинать темы
      Вы не можете отвечать на сообщения
      Вы не можете редактировать свои сообщения
      Вы не можете удалять свои сообщения
      Вы не можете голосовать в опросах
      Вы не можете прикреплять файлы к сообщениям
      Вы можете скачивать файлы