Ссылка на приватное зеркало нашего сайта всего за 1$. Внимание количество ограничено!!!

2 сезон

iTunes

1 сезон

1

iTunes

iTunes

iTunes

1 сезон

RePack

30

ИГРА 18+

pack

ВАЖНО

!!Акция!!

Alien_RageХит недели

RePack

MK11
pack

Забери бонус

RePack

jed

!!Акция!!

Alien_Rage

RePack

fifa19

RePack

Assassins Creed: Odyssey

RePack

NEED FOR SPEED™ PAYBACK

4 сезон

9 сезон

Бесстыжие 9 сезон

Все сериалы

все сериалы на PB.wtf

RePack

FAR CRY 5
  

Завтрак у Тиффани / Breakfast at Tiffany's (Блэйк Эдвардс) [1961, драма, мелодрама, комедия, BDRip 720p] 4 x MVO, 3 x AVO pb.wtf

Завтрак у Тиффани через торрент pb.wtf

Размер: 6.51 GB | Добавлен: 5 лет 6 мес. назад | Торрент скачан:83 раза
Скачать  

07-04-2015 06:31 Завтрак у Тиффани Скачать торрент  

Завтрак у Тиффани / Breakfast at Tiffany's

Год выпуска: 1961
Страна: США
Жанр: драма, мелодрама, комедия
Продолжительность: 01:55:05
Перевод: профессиональный многоголосый, авторский
Субтитры: русские, английские (все отдельно)

Режиссёр: Блэйк Эдвардс

В ролях: Одри Хепбёрн, Джордж Пеппард, Патриция Нил, Бадди Эбсен, Мартин Болсам, Хосе Луис де Вильялонга, Джон МакГайвер, Алан Рид, Дороти Уитни, Беверли Пауэрс, Стэнли Адамс, Клод Страуд, Элвия Оллмэн, Микки Руни, Джанет Банзе, Генри Бекман, Мэл Бланк, Дик Крокетт, Томми Фаррелл

Описание: Столица сильных мира сего и уютное гнездышко очаровательной Холли Голайтли. Кто-то назовёт её девицей по вызову, кто-то — авантюристкой. Одни подумают, что она хитра как лисица. Другие решат, что глупа как пробка. Холли это безразлично. Она наслаждается жизнью, меняет наряды и ищет богатого жениха. Однажды этажом выше появляется симпатичный молодой человек... Фильм снят по мотивам романа Трумена Капоте «Завтрак у Тиффани» (Breakfast at Tiffany`s, 1958).



Качество: BDRip 720p Сравнение с исходником
Формат: MKV
Видео кодек: H.264
Аудио кодек: AC3
Видео: 5212 Кбит/с, 1280x720, 23.976 кадра/с, 0.236 bpp
Аудио 1: русский, AC3, 640 kbps, 6 ch, 48 kHz [профессиональный многоголосый, Universal Pictures [CEE]]
Аудио 2: русский, AC3, 448 kbps, 6 ch, 48 kHz [профессиональный многоголосый, Film Prestige]
Аудио 3: русский, AC3, 448 kbps, 6 ch, 48 kHz [авторский, Юрий Живов]

Внешние файлы
Аудио: русский, AC3, 192 kbps, 2 ch, 48 kHz [профессиональный многоголосый, вариант 3]
Аудио: русский, AC3, 192 kbps, 2 ch, 48 kHz [профессиональный многоголосый, вариант 4]
Аудио: русский, AC3, 192 kbps, 2 ch, 48 kHz [авторский, А.Медведев]
Аудио: русский, AC3, 192 kbps, 2 ch, 48 kHz [авторский, Сергей Кузнецов]
Аудио: английский, AC3, 448 kbps, 6 ch, 48 kHz [оригинал]
Оскар, 1962 год
Победитель (2):
Лучшая песня — «Moon River»
Лучший саундтрек для драматических/комедийных картин

Номинации (3):
Лучшая женская роль (Одри Хепберн)
Лучший адаптированный сценарий
Лучшая работа художника (цветные фильмы)

Золотой глобус, 1962 год
Номинации (2):
Лучшая женская роль (комедия или мюзикл) (Одри Хепберн)
Лучший фильм (комедия)
frame I:1001 Avg QP:18.28 size:136932
frame P:33980 Avg QP:19.63 size: 59660
frame B:130595 Avg QP:21.39 size: 18767

Общее
Полное имя : D:VideoZavtrak u Tiffani.1961.BDRip.720pZavtrak u Tiffani.1961.AVO.rus.А.Медведев.ac3
Формат : AC-3
Формат/Информация : Audio Coding 3
Размер файла : 158 Мбайт
Продолжительность : 1 ч. 54 м.
Режим общего битрейта : Постоянный
Общий поток : 192 Кбит/сек

Аудио
Формат : AC-3
Формат/Информация : Audio Coding 3
Расширение режима : CM (complete main)
Параметр Endianness формата : Big
Продолжительность : 1 ч. 54 м.
Вид битрейта : Постоянный
Битрейт : 192 Кбит/сек
Каналы : 2 канала
Расположение каналов : Front: L R
Частота : 48,0 КГц
Битовая глубина : 16 бит
Метод сжатия : С потерями
Размер потока : 158 Мбайт (100%)

Общее
Полное имя : D:VideoZavtrak u Tiffani.1961.BDRip.720pZavtrak u Tiffani.1961.AVO.rus.С.Кузнецов.ac3
Формат : AC-3
Формат/Информация : Audio Coding 3
Размер файла : 158 Мбайт
Продолжительность : 1 ч. 54 м.
Режим общего битрейта : Постоянный
Общий поток : 192 Кбит/сек

Аудио
Формат : AC-3
Формат/Информация : Audio Coding 3
Расширение режима : CM (complete main)
Параметр Endianness формата : Big
Продолжительность : 1 ч. 54 м.
Вид битрейта : Постоянный
Битрейт : 192 Кбит/сек
Каналы : 2 канала
Расположение каналов : Front: L R
Частота : 48,0 КГц
Битовая глубина : 16 бит
Метод сжатия : С потерями
Размер потока : 158 Мбайт (100%)

Общее
Уникальный идентификатор : 214032824197409468537914623612048001145 (0xA10538F71813A5EAA85A8B0C29924879)
Полное имя : D:VideoZavtrak u Tiffani.1961.BDRip.720pZavtrak u Tiffani.1961.BDRip.720p.mkv
Формат : Matroska
Версия формата : Version 4 / Version 2
Размер файла : 5,54 Гбайт
Продолжительность : 1 ч. 55 м.
Общий поток : 6885 Кбит/сек
Дата кодирования : UTC 2015-04-06 12:19:57
Программа кодирования : mkvmerge v7.8.0 ('River Man') 64bit built on Mar 27 2015 16:31:37
Библиотека кодирования : libebml v1.3.1 + libmatroska v1.4.2
_STATISTICS_WRITING_APP : mkvmerge v7.8.0 ('River Man') 64bit built on Mar 27 2015 16:31:37
_STATISTICS_WRITING_DATE_UTC : 2015-04-06 12:19:57
_STATISTICS_TAGS : BPS DURATION NUMBER_OF_FRAMES NUMBER_OF_BYTES
DURATION : 01:55:05.952000000
NUMBER_OF_FRAMES : 215811
NUMBER_OF_BYTES : 386733312

Видео
Идентификатор : 1
Формат : AVC
Формат/Информация : Advanced Video Codec
Профиль формата : High@L4.1
Параметр CABAC формата : Да
Параметр ReFrames формата : 9 кадров
Идентификатор кодека : V_MPEG4/ISO/AVC
Продолжительность : 1 ч. 55 м.
Битрейт : 5212 Кбит/сек
Ширина : 1280 пикселей
Высота : 720 пикселей
Соотношение сторон : 16:9
Режим частоты кадров : Постоянный
Частота кадров : 23,976 кадра/сек
Цветовое пространство : YUV
Субдискретизация насыщенности : 4:2:0
Битовая глубина : 8 бит
Тип развёртки : Прогрессивная
Бит/(Пиксели*Кадры) : 0.236
Размер потока : 4,19 Гбайт (76%)
Заголовок : BDRip -- STarankov
Библиотека кодирования : x264 core 146 r2538 121396c
Настройки программы : cabac=1 / ref=9 / deblock=1:-1:-1 / analyse=0x3:0x113 / me=umh / subme=10 / psy=1 / psy_rd=1.00:0.15 / mixed_ref=1 / me_range=32 / chroma_me=1 / trellis=2 / 8x8dct=1 / cqm=0 / deadzone=21,11 / fast_pskip=1 / chroma_qp_offset=-3 / threads=6 / lookahead_threads=1 / sliced_threads=0 / nr=0 / decimate=1 / interlaced=0 / bluray_compat=0 / constrained_intra=0 / bframes=8 / b_pyramid=2 / b_adapt=2 / b_bias=0 / direct=3 / weightb=1 / open_gop=0 / weightp=2 / keyint=230 / keyint_min=23 / scenecut=40 / intra_refresh=0 / rc_lookahead=40 / rc=crf / mbtree=0 / crf=19.5 / qcomp=0.60 / qpmin=0 / qpmax=69 / qpstep=4 / vbv_maxrate=40000 / vbv_bufsize=50000 / crf_max=0.0 / nal_hrd=none / filler=0 / ip_ratio=1.40 / pb_ratio=1.30 / aq=1:1.00
Язык : English
Default : Да
Forced : Нет
DURATION : 01:55:05.899000000
NUMBER_OF_FRAMES : 165576
NUMBER_OF_BYTES : 4615206587
_STATISTICS_WRITING_APP : mkvmerge v7.8.0 ('River Man') 64bit built on Mar 27 2015 16:31:37
_STATISTICS_WRITING_DATE_UTC : 2015-04-06 12:19:57
_STATISTICS_TAGS : BPS DURATION NUMBER_OF_FRAMES NUMBER_OF_BYTES

Аудио #1
Идентификатор : 2
Формат : AC-3
Формат/Информация : Audio Coding 3
Расширение режима : CM (complete main)
Параметр Endianness формата : Big
Идентификатор кодека : A_AC3
Продолжительность : 1 ч. 55 м.
Вид битрейта : Постоянный
Битрейт : 640 Кбит/сек
Каналы : 6 каналов
Расположение каналов : Front: L C R, Side: L R, LFE
Частота : 48,0 КГц
Битовая глубина : 16 бит
Метод сжатия : С потерями
Размер потока : 527 Мбайт (9%)
Заголовок : MVO (Universal Pictures [CEE])
Язык : Russian
Default : Да
Forced : Нет

Аудио #2
Идентификатор : 3
Формат : AC-3
Формат/Информация : Audio Coding 3
Расширение режима : CM (complete main)
Параметр Endianness формата : Big
Идентификатор кодека : A_AC3
Продолжительность : 1 ч. 55 м.
Вид битрейта : Постоянный
Битрейт : 448 Кбит/сек
Каналы : 6 каналов
Расположение каналов : Front: L C R, Side: L R, LFE
Частота : 48,0 КГц
Битовая глубина : 16 бит
Метод сжатия : С потерями
Размер потока : 369 Мбайт (7%)
Заголовок : MVO (Film Prestige)
Язык : Russian
Default : Нет
Forced : Нет

Аудио #3
Идентификатор : 4
Формат : AC-3
Формат/Информация : Audio Coding 3
Расширение режима : CM (complete main)
Параметр Endianness формата : Big
Идентификатор кодека : A_AC3
Продолжительность : 1 ч. 55 м.
Вид битрейта : Постоянный
Битрейт : 448 Кбит/сек
Каналы : 6 каналов
Расположение каналов : Front: L C R, Side: L R, LFE
Частота : 48,0 КГц
Битовая глубина : 16 бит
Метод сжатия : С потерями
Размер потока : 369 Мбайт (7%)
Заголовок : AVO (Юрий Живов)
Язык : Russian
Default : Нет
Forced : Нет

Общее
Полное имя : D:VideoZavtrak u Tiffani.1961.BDRip.720pZavtrak u Tiffani.1961.eng.srt
Формат : SubRip
Размер файла : 114 Кбайт

Текст
Формат : SubRip
Метод сжатия : Без потерь

Общее
Полное имя : D:VideoZavtrak u Tiffani.1961.BDRip.720pZavtrak u Tiffani.1961.MVO.rus.вариант 3.ac3
Формат : AC-3
Формат/Информация : Audio Coding 3
Размер файла : 158 Мбайт
Продолжительность : 1 ч. 54 м.
Режим общего битрейта : Постоянный
Общий поток : 192 Кбит/сек

Аудио
Формат : AC-3
Формат/Информация : Audio Coding 3
Расширение режима : CM (complete main)
Параметр Endianness формата : Big
Продолжительность : 1 ч. 54 м.
Вид битрейта : Постоянный
Битрейт : 192 Кбит/сек
Каналы : 2 канала
Расположение каналов : Front: L R
Частота : 48,0 КГц
Битовая глубина : 16 бит
Метод сжатия : С потерями
Размер потока : 158 Мбайт (100%)

Общее
Полное имя : D:VideoZavtrak u Tiffani.1961.BDRip.720pZavtrak u Tiffani.1961.MVO.rus.вариант 4.ac3
Формат : AC-3
Формат/Информация : Audio Coding 3
Размер файла : 158 Мбайт
Продолжительность : 1 ч. 54 м.
Режим общего битрейта : Постоянный
Общий поток : 192 Кбит/сек

Аудио
Формат : AC-3
Формат/Информация : Audio Coding 3
Расширение режима : CM (complete main)
Параметр Endianness формата : Big
Продолжительность : 1 ч. 54 м.
Вид битрейта : Постоянный
Битрейт : 192 Кбит/сек
Каналы : 2 канала
Расположение каналов : Front: L R
Частота : 48,0 КГц
Битовая глубина : 16 бит
Метод сжатия : С потерями
Размер потока : 158 Мбайт (100%)

Общее
Полное имя : D:VideoZavtrak u Tiffani.1961.BDRip.720pZavtrak u Tiffani.1961.Original.eng.ac3
Формат : AC-3
Формат/Информация : Audio Coding 3
Размер файла : 369 Мбайт
Продолжительность : 1 ч. 55 м.
Режим общего битрейта : Постоянный
Общий поток : 448 Кбит/сек

Аудио
Формат : AC-3
Формат/Информация : Audio Coding 3
Расширение режима : CM (complete main)
Параметр Endianness формата : Big
Продолжительность : 1 ч. 55 м.
Вид битрейта : Постоянный
Битрейт : 448 Кбит/сек
Каналы : 6 каналов
Расположение каналов : Front: L C R, Side: L R, LFE
Частота : 48,0 КГц
Битовая глубина : 16 бит
Метод сжатия : С потерями
Размер потока : 369 Мбайт (100%)

Общее
Полное имя : D:VideoZavtrak u Tiffani.1961.BDRip.720pZavtrak u Tiffani.1961.rus.srt
Формат : SubRip
Размер файла : 146 Кбайт

Текст
Формат : SubRip
Метод сжатия : Без потерь
pb.wtf



Скачать Завтрак у Тиффани через торрент http://i60.fastpic.ru/big/2015/0406/2e/2bf29665e9991adb79aacd33873d102e.jpg Скачать фильм Завтрак у Тиффани через торрент бесплантно в хорошем качестве Описание: Столица сильных мира сего и уютное гнездышко очаровательной Холли Голайтли. Кто-то назовёт её девицей по вызову, кто-то — ... 10 10 3
Info! Золотая раздача, скачанное не засчитывается.
Торрент: Зарегистрирован [2015-04-07 06:31] · скачан: 83 раз
Статус: √ проверено
Размер: 6.51 GB
Как cкачать? Как скачать Завтрак у Тиффани через торрент | qTorrent

28-11-2019 20:33  

Отключить всю рекламу на сайте

    Дорогой пользователь! Огромная просьба, поблагодарите релизера, оцените раздачу и оставьте свои комментарий, если Вы скачали Завтрак у Тиффани через торрент бесплатно! Внесите свою лепту в развитие PiratBit!
    Комментировать посты могут только пользователи прошедшие не сложную регистрацию
    Показать сообщения:    

    Завтрак у Тиффани через торрент
    Скачать бесплатно Завтрак у Тиффани
    Завтрак у Тиффани скачать торрент
    Завтрак у Тиффани смотреть онлайн
    Cкачать фильм Завтрак у Тиффани бесплатно
    Завтрак у Тиффани скачать торрент в хорошем качестве
    Завтрак у Тиффани смотреть онлайн бесплатно в хорошем качестве


    Вы не можете начинать темы
    Вы не можете отвечать на сообщения
    Вы не можете редактировать свои сообщения
    Вы не можете удалять свои сообщения
    Вы не можете голосовать в опросах
    Вы не можете прикреплять файлы к сообщениям
    Вы можете скачивать файлы