>

7.4

iTunes

7.4

2 сезон

9.4

1 сезон

1

7.4

2 сезон

7.2

iTunes

6.0

MVO

13

6.1

iTunes

8.3

Пиратка

30

ULTIMATE

pack

9.9

Лицензия

ВАЖНО

ИГРА 18+

pack

7.3

RePack

MK11

7.7

RePack

jed

7.8

RePack

fifa19

8.5

RePack

RDR2

RePack

NEED FOR SPEED™ PAYBACK

1 сезон

9 сезон

Бесстыжие 9 сезон

Все сериалы

все сериалы на PB.wtf

RePack

FAR CRY 5

Anonymous, доброй ночи, мы катастрофически не успеваем собрать деньги на оплату серверов, помогите нам пожалуйста 5,10,15р., для нас важна любая помощь . В качестве благодарности мы отключим Вам всю рекламу на сайте (укажите свой ник в строку Ваше имя)!

×
  
Magnet ссылка

Только ты / Only You (Норман Джуисон / Norman Jewison) [1994, мелодрама, комедия, WEB-DLRip] [AVO] (А.Гаврилов) pb.wtf

Только ты через торрент pb.wtf

Размер: 1.46 GB | Добавлен: 6 лет 9 мес. назад | Торрент скачан:21 раз
Смотреть онлайн Только ты | Скачать    Ребята, помогите собрать деньги на оплату серверов!!!

07-04-2015 07:03 Только ты Скачать торрент  

Только ты / Only You
Год выпуска: 1994
Страна: США, Италия
Жанр: мелодрама, комедия
Продолжительность: 01:48:24
Перевод: Авторский (одноголосый, закадровый) [Андрей Гаврилов]
Cубтитры: нет

Режиссер: Норман Джуисон / Norman Jewison

В ролях: Мариса Томей, Роберт Дауни мл., Бонни Хант, Жоаким ди Алмейда, Фишер Стивенс, Билли Зейн, Адам ЛеФевр, Джон Бенжамин Хикки, Шаван Фэллон, Антония Рей

Описание: Школьная учительница Фэйт Корвач знала точно, что имя ее нареченного — Дэймон Брэдли. Ей это предсказала цыганка 14 лет назад. Но время шло, а суженный на горизонте все не появлялся, и Фэйт обручилась с ортопедом.
И именно в это время, как гром среди ясного неба, раздался телефонный звонок от друга ее жениха, направляющегося в Венецию. Он назвался Дэймоном Брэдли. Фэйт, не долго думая, бросила все и помчалась в аэропорт, догонять свое улетевшее в Италию счастье…



Качество видео: WEB-DLRip
Формат видео: AVI
Видео кодек: XviD
Аудио кодек: AC3
Видео: 704x400 (1.76:1), 23.976 fps, XviD build 73 ~1732 kbps avg, 0.26 bit/pixel
Аудио: 48 kHz, AC3 Dolby Digital, 2/0 (L,R) ch, ~192 kbps

Автор рипа -- JIuI3epIIyJIb
за дорогу Гаврилова большое спасибо _int_, в связи с отсутствием перевода на отрезке 01:25:55-01:26:19 была сделана вставка с одноголосого перевода
Полное имя : Только ты 1994.avi
Формат : AVI
Формат/Информация : Audio Video Interleave
Размер файла : 1,46 Гбайт
Продолжительность : 1 ч. 48 м.
Общий поток : 1934 Кбит/сек
Программа кодирования : VirtualDubMod 1.5.10.2 (build 2540/release)
Библиотека кодирования : VirtualDubMod build 2540/release
Видео
Идентификатор : 0
Формат : MPEG-4 Visual
Профиль формата : Advanced Simple@L5
Параметр BVOP формата : 2
Параметр QPel формата : Нет
Параметр GMC формата : Без точки перехода
Параметр матрицы формата : Выборочная
Идентификатор кодека : XVID
Идентификатор кодека/Подсказка : XviD
Продолжительность : 1 ч. 48 м.
Битрейт : 1732 Кбит/сек
Ширина : 704 пикселя
Высота : 400 пикселей
Соотношение сторон : 16:9
Частота кадров : 23,976 кадра/сек
Цветовое пространство : YUV
Субдискретизация насыщенности : 4:2:0
Битовая глубина : 8 бит
Тип развёртки : Прогрессивная
Метод сжатия : С потерями
Бит/(Пиксели*Кадры) : 0.257
Размер потока : 1,31 Гбайт (90%)
Библиотека кодирования : XviD 73
Аудио
Идентификатор : 1
Формат : AC-3
Формат/Информация : Audio Coding 3
Расширение режима : CM (complete main)
Параметр Endianness формата : Big
Идентификатор кодека : 2000
Продолжительность : 1 ч. 48 м.
Вид битрейта : Постоянный
Битрейт : 192 Кбит/сек
Каналы : 2 канала
Расположение каналов : Front: L R
Частота : 48,0 КГц
Битовая глубина : 16 бит
Метод сжатия : С потерями
Размер потока : 149 Мбайт (10%)
Выравнивание : Разделение по промежуткам
Продолжительность промежутка : 42 мс. (1,00 видеокадр)
Время предзагрузки промежутка : 500 мс.
pb.wtf



Скачать Только ты через торрент http://s018.radikal.ru/i519/1706/31/3d749cf73d31.png Скачать, смотреть онлайн Только ты бесплантно в хорошем качестве Описание: Школьная учительница Фэйт Корвач знала точно, что имя ее нареченного — Дэймон Брэдли. Ей это предсказала цыганка 14 лет назад. Но ... 10 10 2
Торрент: Зарегистрирован [2015-04-07 07:03] · скачан: 21 раз
Статус: √ проверено
Размер: 1.46 GB
Как cкачать? Как скачать Только ты через торрент | UTorrent

% Раздел Тема Автор DL S | L
Фильмы [HD 720p, 1080p] (Хороший звук DUB, MVO) [ 3.86 GB ] Только ты / Only You [1994 WEB-DL 720p] + [MVO] + [AVO] + [Ukr DVO] killermax2013 Скачать
2 | 0
Фильмы до 2000 г. [ 1.46 GB ] Только ты / Only You [1994 WEB-DLRip] killermax2013 Скачать
1 | 0
Порно фильмы с сюжетом [ 891 MB ] Если бы ты только знал / If You Only Knew [2012 Feature Couples. WEB-DL] Pir@tya2010 Скачать
1 | 0
Фильмы до 2000 г. [ 1.37 GB ] Только ты / Only You / профессиональный перевод [1994 Мело DVDRip] Joup Скачать
1 | 0

28-11-2019 20:33  

Отключить всю рекламу на сайте

    Дорогой пользователь! Огромная просьба, поблагодарите релизера, оцените раздачу и оставьте свои комментарий, если Вы скачали Только ты через торрент бесплатно!
    Комментировать посты могут только пользователи прошедшие не сложную регистрацию
    Показать сообщения:    

    Только ты через торрент
    Скачать бесплатно Только ты
    Только ты скачать торрент
    Только ты смотреть онлайн
    Cкачать фильм Только ты бесплатно
    Только ты скачать торрент в хорошем качестве
    Только ты смотреть онлайн бесплатно в хорошем качестве


    Вы не можете начинать темы
    Вы не можете отвечать на сообщения
    Вы не можете редактировать свои сообщения
    Вы не можете удалять свои сообщения
    Вы не можете голосовать в опросах
    Вы не можете прикреплять файлы к сообщениям
    Вы можете скачивать файлы