Ссылка на приватное зеркало нашего сайта всего за 1$. Внимание количество ограничено!!!

2 сезон

iTunes

1 сезон

1

iTunes

iTunes

iTunes

1 сезон

RePack

30

ИГРА 18+

pack

ВАЖНО

!!Акция!!

Alien_RageХит недели

RePack

MK11
pack

Забери бонус

RePack

jed

!!Акция!!

Alien_Rage

RePack

fifa19

RePack

Assassins Creed: Odyssey

RePack

NEED FOR SPEED™ PAYBACK

4 сезон

9 сезон

Бесстыжие 9 сезон

Все сериалы

все сериалы на PB.wtf

RePack

FAR CRY 5
  

Без вести пропавшие 2: Начало / Missing in Action 2: The Beginning (Ленс Хул) [1985, боевик, триллер, драма, военный, BDRip 720p] DVO, 2 x AVO, 3 x VO pb.wtf

Без вести пропавшие 2: Начало через торрент pb.wtf

Размер: 4.59 GB | Добавлен: 5 лет 6 мес. назад | Торрент скачан:17 раз
Скачать  

07-04-2015 12:35 Без вести пропавшие 2: Начало Скачать торрент  

Без вести пропавшие 2: Начало / Missing in Action 2: The Beginning

Год выпуска: 1985
Страна: США
Жанр: боевик, триллер, драма, военный
Продолжительность: 01:35:31
Перевод: профессиональный двухголосый, авторский, одноголосый закадровый
Субтитры: английские

Режиссёр: Ленс Хул

В ролях: Чак Норрис, О Сун Тек, Стивен Уильямс (I), Беннетт Охта, Кози Коста, Джо Майкл Терри, Джон Уэсли, Дэвид Чун, профессор Тору Танака, Джон Отрин

Описание: 1972 год, война во Вьетнаме. При выполнении боевого задания в плен попадает группа американских солдат во главе с полковником Брэддоком. Их считают пропавшими без вести. Начальник лагеря, расположенного в джунглях, полковник Вин всеми способами пытается сломить волю Брэддока. Но, в конце концов, Брэддоку удается сбежать и начать партизанскую войну...



Качество: BDRip 720p Сравнение с исходником
Формат: MKV
Видео кодек: H.264
Аудио кодек: AC3
Видео: 5411 Кбит/с, 1280x692, 23,976 кадра/сек
Аудио 1: русский, AC3, 192 kbps, 2 ch, 48 kHz [профессиональный двухголосый]
Аудио 2: русский, AC3, 192 kbps, 2 ch, 48 kHz [авторский, Василий Горчаков]
Аудио 3: русский, AC3, 192 kbps, 2 ch, 48 kHz [авторский, Вартан Дохалов]

Внешние файлы
Аудио: русский, AC3, 192 kbps, 2 ch, 48 kHz [одноголосый закадровый, вариант 1]
Аудио: русский, AC3, 192 kbps, 2 ch, 48 kHz [одноголосый закадровый, вариант 2]
Аудио: русский, AC3, 192 kbps, 2 ch, 48 kHz [одноголосый закадровый, вариант 3]
Аудио: английский, AC3, 192 kbps, 1 ch, 48 kHz [оригинал]
frame I:1409 Avg QP:19.68 size:116590
frame P:24811 Avg QP:20.67 size: 51479
frame B:111205 Avg QP:22.62 size: 22670

Общее
Уникальный идентификатор : 180846326445168015851675111389637400003 (0x880DBC4C911EE320B86210734FF455C3)
Полное имя : D:VideoBez vesti propavshie 2.1985.BDRip.720pBez vesti propavshie 2.1985.BDRip.720p.mkv
Формат : Matroska
Версия формата : Version 4 / Version 2
Размер файла : 4,08 Гбайт
Продолжительность : 1 ч. 35 м.
Общий поток : 6109 Кбит/сек
Дата кодирования : UTC 2015-04-07 10:19:17
Программа кодирования : mkvmerge v7.8.0 ('River Man') 64bit built on Mar 27 2015 16:31:37
Библиотека кодирования : libebml v1.3.1 + libmatroska v1.4.2
_STATISTICS_WRITING_APP : mkvmerge v7.8.0 ('River Man') 64bit built on Mar 27 2015 16:31:37
_STATISTICS_WRITING_DATE_UTC : 2015-04-07 10:19:17
_STATISTICS_TAGS : BPS DURATION NUMBER_OF_FRAMES NUMBER_OF_BYTES
DURATION : 01:35:31.744000000
NUMBER_OF_FRAMES : 179117
NUMBER_OF_BYTES : 137561856

Видео
Идентификатор : 1
Формат : AVC
Формат/Информация : Advanced Video Codec
Профиль формата : High@L4.1
Параметр CABAC формата : Да
Параметр ReFrames формата : 9 кадров
Идентификатор кодека : V_MPEG4/ISO/AVC
Продолжительность : 1 ч. 35 м.
Битрейт : 5411 Кбит/сек
Ширина : 1280 пикселей
Высота : 692 пикселя
Соотношение сторон : 1,85:1
Режим частоты кадров : Постоянный
Частота кадров : 23,976 кадра/сек
Цветовое пространство : YUV
Субдискретизация насыщенности : 4:2:0
Битовая глубина : 8 бит
Тип развёртки : Прогрессивная
Бит/(Пиксели*Кадры) : 0.255
Размер потока : 3,61 Гбайт (89%)
Заголовок : BDRip -- STarankov
Библиотека кодирования : x264 core 146 r2538 121396c
Настройки программы : cabac=1 / ref=9 / deblock=1:-1:-1 / analyse=0x3:0x113 / me=umh / subme=10 / psy=1 / psy_rd=1.00:0.15 / mixed_ref=1 / me_range=32 / chroma_me=1 / trellis=2 / 8x8dct=1 / cqm=0 / deadzone=21,11 / fast_pskip=1 / chroma_qp_offset=-3 / threads=6 / lookahead_threads=1 / sliced_threads=0 / nr=0 / decimate=1 / interlaced=0 / bluray_compat=0 / constrained_intra=0 / bframes=10 / b_pyramid=2 / b_adapt=2 / b_bias=0 / direct=3 / weightb=1 / open_gop=0 / weightp=2 / keyint=230 / keyint_min=23 / scenecut=40 / intra_refresh=0 / rc_lookahead=40 / rc=crf / mbtree=0 / crf=19.0 / qcomp=0.60 / qpmin=0 / qpmax=69 / qpstep=4 / vbv_maxrate=40000 / vbv_bufsize=50000 / crf_max=0.0 / nal_hrd=none / filler=0 / ip_ratio=1.40 / pb_ratio=1.30 / aq=1:1.00
Язык : English
Default : Да
Forced : Нет
DURATION : 01:35:31.768000000
NUMBER_OF_FRAMES : 137425
NUMBER_OF_BYTES : 3962530070
_STATISTICS_WRITING_APP : mkvmerge v7.8.0 ('River Man') 64bit built on Mar 27 2015 16:31:37
_STATISTICS_WRITING_DATE_UTC : 2015-04-07 10:19:17
_STATISTICS_TAGS : BPS DURATION NUMBER_OF_FRAMES NUMBER_OF_BYTES

Аудио #1
Идентификатор : 2
Формат : AC-3
Формат/Информация : Audio Coding 3
Расширение режима : CM (complete main)
Параметр Endianness формата : Big
Идентификатор кодека : A_AC3
Продолжительность : 1 ч. 35 м.
Вид битрейта : Постоянный
Битрейт : 192 Кбит/сек
Каналы : 2 канала
Расположение каналов : Front: L R
Частота : 48,0 КГц
Битовая глубина : 16 бит
Метод сжатия : С потерями
Размер потока : 131 Мбайт (3%)
Заголовок : DVO
Язык : Russian
Default : Да
Forced : Нет

Аудио #2
Идентификатор : 3
Формат : AC-3
Формат/Информация : Audio Coding 3
Расширение режима : CM (complete main)
Параметр Endianness формата : Big
Идентификатор кодека : A_AC3
Продолжительность : 1 ч. 35 м.
Вид битрейта : Постоянный
Битрейт : 192 Кбит/сек
Каналы : 2 канала
Расположение каналов : Front: L R
Частота : 48,0 КГц
Битовая глубина : 16 бит
Метод сжатия : С потерями
Размер потока : 131 Мбайт (3%)
Заголовок : AVO (Василий Горчаков)
Язык : Russian
Default : Нет
Forced : Нет

Аудио #3
Идентификатор : 4
Формат : AC-3
Формат/Информация : Audio Coding 3
Расширение режима : CM (complete main)
Параметр Endianness формата : Big
Идентификатор кодека : A_AC3
Продолжительность : 1 ч. 35 м.
Вид битрейта : Постоянный
Битрейт : 192 Кбит/сек
Каналы : 2 канала
Расположение каналов : Front: L R
Частота : 48,0 КГц
Битовая глубина : 16 бит
Метод сжатия : С потерями
Размер потока : 131 Мбайт (3%)
Заголовок : AVO (Вартан Дохалов)
Язык : Russian
Default : Нет
Forced : Нет

Общее
Полное имя : D:VideoBez vesti propavshie 2.1985.BDRip.720pBez vesti propavshie 2.1985.eng.srt
Формат : SubRip
Размер файла : 49,7 Кбайт

Текст
Формат : SubRip
Метод сжатия : Без потерь

Общее
Полное имя : D:VideoBez vesti propavshie 2.1985.BDRip.720pBez vesti propavshie 2.1985.Original.eng.ac3
Формат : AC-3
Формат/Информация : Audio Coding 3
Размер файла : 131 Мбайт
Продолжительность : 1 ч. 35 м.
Режим общего битрейта : Постоянный
Общий поток : 192 Кбит/сек

Аудио
Формат : AC-3
Формат/Информация : Audio Coding 3
Расширение режима : CM (complete main)
Параметр Endianness формата : Big
Продолжительность : 1 ч. 35 м.
Вид битрейта : Постоянный
Битрейт : 192 Кбит/сек
Каналы : 1 канал
Расположение каналов : Front: C
Частота : 48,0 КГц
Битовая глубина : 16 бит
Метод сжатия : С потерями
Размер потока : 131 Мбайт (100%)

Общее
Полное имя : D:VideoBez vesti propavshie 2.1985.BDRip.720pBez vesti propavshie 2.1985.VO.rus.вариант 1.ac3
Формат : AC-3
Формат/Информация : Audio Coding 3
Размер файла : 131 Мбайт
Продолжительность : 1 ч. 35 м.
Режим общего битрейта : Постоянный
Общий поток : 192 Кбит/сек

Аудио
Формат : AC-3
Формат/Информация : Audio Coding 3
Расширение режима : CM (complete main)
Параметр Endianness формата : Big
Продолжительность : 1 ч. 35 м.
Вид битрейта : Постоянный
Битрейт : 192 Кбит/сек
Каналы : 2 канала
Расположение каналов : Front: L R
Частота : 48,0 КГц
Битовая глубина : 16 бит
Метод сжатия : С потерями
Размер потока : 131 Мбайт (100%)

Общее
Полное имя : D:VideoBez vesti propavshie 2.1985.BDRip.720pBez vesti propavshie 2.1985.VO.rus.вариант 2.ac3
Формат : AC-3
Формат/Информация : Audio Coding 3
Размер файла : 131 Мбайт
Продолжительность : 1 ч. 35 м.
Режим общего битрейта : Постоянный
Общий поток : 192 Кбит/сек

Аудио
Формат : AC-3
Формат/Информация : Audio Coding 3
Расширение режима : CM (complete main)
Параметр Endianness формата : Big
Продолжительность : 1 ч. 35 м.
Вид битрейта : Постоянный
Битрейт : 192 Кбит/сек
Каналы : 2 канала
Расположение каналов : Front: L R
Частота : 48,0 КГц
Битовая глубина : 16 бит
Метод сжатия : С потерями
Размер потока : 131 Мбайт (100%)

Общее
Полное имя : D:VideoBez vesti propavshie 2.1985.BDRip.720pBez vesti propavshie 2.1985.VO.rus.вариант 3.ac3
Формат : AC-3
Формат/Информация : Audio Coding 3
Размер файла : 131 Мбайт
Продолжительность : 1 ч. 35 м.
Режим общего битрейта : Постоянный
Общий поток : 192 Кбит/сек

Аудио
Формат : AC-3
Формат/Информация : Audio Coding 3
Расширение режима : CM (complete main)
Параметр Endianness формата : Big
Продолжительность : 1 ч. 35 м.
Вид битрейта : Постоянный
Битрейт : 192 Кбит/сек
Каналы : 2 канала
Расположение каналов : Front: L R
Частота : 48,0 КГц
Битовая глубина : 16 бит
Метод сжатия : С потерями
Размер потока : 131 Мбайт (100%)
pb.wtf



Скачать Без вести пропавшие 2: Начало через торрент http://i58.fastpic.ru/big/2015/0407/19/a98f6207fa7451cf2112c4a28a3e8c19.jpg Скачать фильм Без вести пропавшие 2: Начало через торрент бесплантно в хорошем качестве Описание: 1972 год, война во Вьетнаме. При выполнении боевого задания в плен попадает группа американских солдат во главе с полковником ... 10 10 3
Info! Золотая раздача, скачанное не засчитывается.
Торрент: Зарегистрирован [2015-04-07 12:35] · скачан: 17 раз
Статус: √ проверено
Размер: 4.59 GB
Как cкачать? Как скачать Без вести пропавшие 2: Начало через торрент | qTorrent

% Раздел Тема Автор DL S | L
Фильмы до 2000 г. [ 3.1 GB ] Без вести пропавшие 2: Начало / Missing in Action 2: The Beginning [1985 военный BDRip-AVC] DVO 2 x AVO 3 x VO msltel Скачать
1 | 0

28-11-2019 20:33  

Отключить всю рекламу на сайте

07-04-2015 14:49 Без вести пропавшие 2: Начало Скачать торрент  

Старое конечно , но всё таки в описании знатный анекдот) "Но, в конце концов, Брэддоку удается сбежать и начать партизанскую войну..." Во Вьетнаме) Что то с этим миром не такpb.wtf



07-04-2015 16:25 Без вести пропавшие 2: Начало Скачать торрент  

msltel писал(а):

Видео: 5411 Кбит/с, 1280x692

pb.wtf
K☆Lexx☆ писал(а):

msltel, поправил тех. данные, не забывайте, пожалуйста, указывать частоту смены кадра (fps).



    Дорогой пользователь! Огромная просьба, поблагодарите релизера, оцените раздачу и оставьте свои комментарий, если Вы скачали Без вести пропавшие 2: Начало через торрент бесплатно! Внесите свою лепту в развитие PiratBit!
    Комментировать посты могут только пользователи прошедшие не сложную регистрацию
    Показать сообщения:    

    Без вести пропавшие 2: Начало через торрент
    Скачать бесплатно Без вести пропавшие 2: Начало
    Без вести пропавшие 2: Начало скачать торрент
    Без вести пропавшие 2: Начало смотреть онлайн
    Cкачать фильм Без вести пропавшие 2: Начало бесплатно
    Без вести пропавшие 2: Начало скачать торрент в хорошем качестве
    Без вести пропавшие 2: Начало смотреть онлайн бесплатно в хорошем качестве


    Вы не можете начинать темы
    Вы не можете отвечать на сообщения
    Вы не можете редактировать свои сообщения
    Вы не можете удалять свои сообщения
    Вы не можете голосовать в опросах
    Вы не можете прикреплять файлы к сообщениям
    Вы можете скачивать файлы