1 сезон

3 сезон

iTunes

1

Line

MVO

iTunes

13

1 сезон

RePack

30

Deluxe

pack

Лицензия

ВАЖНО

ИГРА 18+

pack

RePack

MK11

RePack

jed

RePack

fifa19

RePack

RDR2

RePack

NEED FOR SPEED™ PAYBACK

4 сезон

9 сезон

Бесстыжие 9 сезон

Все сериалы

все сериалы на PB.wtf

RePack

FAR CRY 5

Anonymous, доброе утро, мы катастрофически не успеваем собрать деньги на оплату серверов, помогите нам пожалуйста 5,10,15р., для нас важна любая помощь . В качестве благодарности мы отключим Вам всю рекламу на сайте (укажите свой ник в строку Ваше имя)!

×
  
Magnet ссылка

Ровер / The Rover (Дэвид Мишо / David Michôd) [2014, драма, криминал, DVD5] R5 pb.wtf

Ровер через торрент pb.wtf

Размер: 3.84 GB | Добавлен: 6 лет 3 мес. назад | Торрент скачан:36 раз
Скачать  

27-11-2014 09:07 Ровер Скачать торрент  


Ровер / The Rover
«Бойся человека, которому нечего терять»
Страна: Австралия, США
Студия: Canana, Videocine S.A. de C.V.
Жанр: драма, криминал
Год выпуска: 2014
Мировая премьера: 18 мая 2014
Российская премьера: 11 сентября 2014
Дата выхода DVD: 25 ноября 2014
Продолжительность: 01:38:40
Перевод: Профессиональный (многоголосый закадровый) [Лицензия]
Cубтитры: нет
Оригинальная аудиодорожка: нет
Режиссер: Дэвид Мишо / David Michôd
В ролях: Гай Пирс, Роберт Паттинсон, Чан Кьень, Тек Конг Лим, Таванда Маниймо, Скут МакНэйри, Дэвид Филд, Скотт Перри, Ричард Грин, Бен Армер
Описание: Неприглядное ближайшее будущее, когда происходит развал мировой экономики, и общество начинает скатываться в пропасть первобытно-общинных отношений. Всё ещё ведётся добыча угля в шахтах на территории одной из пустынь Австралии.
В одном из таких районов живёт Эрик - человек, ожесточённый жизнью и вынужденный приспосабливаться к окружающему миру. Всё, что было у него хорошего в жизни, теперь осталось в прошлом. Эрик очень дорожит своей машиной, которая для него является частичкой того хорошего, что у него когда-то было.
Не знали преступники, что совершают большую ошибку, угнав этот автомобиль у Эрика. Спасаясь от преследования, они направились вглубь пустыни - в труднопроходимые, засушливые районы. Взбешённый Эрик пускается в погоню. Он намерен догнать преступников. Но в раскалённом сердце пустыни не так-то легко выживать человеку...

Бонусы: нет

Релиз группы:
Качество: DVD5 R5
Формат: DVD-Video
Видео кодек: MPEG2
Аудио кодек: AC3
Видео: PAL 16:9 (720x576(0.564)) MPEG Video, 25,000 кадр/сек, 5849 Кбит/сек
Аудио: Russian (Dolby AC3, 6 ch) 448 Кбит/сек, 48,0 КГц



Title: Rover.2014.DVD5
Size: 3.84 Gb ( 4 023 500,00 KBytes ) - DVD-5
Enabled regions: 1, 2, 3, 4, 5, 6, 7, 8

VTS_01 :
Play Length: 01:38:40
Video: PAL 16:9 (720x576) VBR, Auto Letterboxed
Audio:
Russian (Dolby AC3, 6 ch)

VTS_02 :
Play Length: 00:00:08
Video: PAL 4:3 (720x576) VBR

VTS_03 :
Play Length: 00:00:04+00:00:04
Video: PAL 16:9 (720x576) VBR, Auto Letterboxed

VTS_04 :
Play Length: 00:00:12
Video: PAL 16:9 (720x576) VBR, Auto Letterboxed
Subtitles:
English

* Menus Information *

VIDEO_TS Menu
Video:
NTSC 4:3 (720x480) VBR
Auto Pan&Scan, Auto Letterboxed
Russian Language Unit :
Title Menu

VTS_01 Menu
Video:
PAL 16:9 (720x576) VBR
Auto Letterboxed
Russian Language Unit :
Root Menu
Chapter (PTT) Menu

VTS_02 Menu
Video:
NTSC 4:3 (720x480) VBR
Auto Pan&Scan, Auto Letterboxed
Language Unit :
Subpicture Menu
Angle menu
Language Unit :

Language Unit :
Audio Menu
Chapter (PTT) Menu
Language Unit :

Language Unit :
Audio Menu
Chapter (PTT) Menu

VTS_03 Menu
Video:
NTSC 4:3 (720x480) VBR
Auto Pan&Scan, Auto Letterboxed
Language Unit :
Subpicture Menu
Angle menu
Language Unit :

Language Unit :
Angle menu
Language Unit :
Angle menu
Language Unit :
Angle menu

VTS_04 Menu
Video:
NTSC 4:3 (720x480) VBR
Auto Pan&Scan, Auto Letterboxed
Language Unit :
Subpicture Menu
Angle menu
Language Unit :

Language Unit :
Root Menu
Subpicture Menu
Audio Menu
Language Unit :

Language Unit :
Root Menu
Subpicture Menu
Audio Menu
Общее
Полное имя : F:\Новинки 2014\Rover.2014.DVD5\VIDEO_TS\VTS_01_1.VOB
Формат : MPEG-PS
Размер файла : 1024 Мбайт
Продолжительность : 22 м.
Режим общего битрейта : Переменный
Общий поток : 6425 Кбит/сек

Видео
Идентификатор : 224 (0xE0)
Формат : MPEG Video
Версия формата : Version 2
Профиль формата : Main@Main
Параметр BVOP формата : Да
Параметр матрицы формата : Выборочная
Параметр GOP формата : Variable
Format_Settings_PictureStructure : Frame
Продолжительность : 22 м.
Вид битрейта : Переменный
Битрейт : 5849 Кбит/сек
Максимальный битрейт : 8000 Кбит/сек
Ширина : 720 пикселей
Высота : 576 пикселей
Соотношение сторон : 16:9
Частота кадров : 25,000 кадров/сек
Стандарт вещания : PAL
Цветовое пространство : YUV
Субдискретизация насыщенности : 4:2:0
Битовая глубина : 8 бит
Тип развёртки : Чересстрочная
Порядок развёртки : Верхнее поле первое
Метод сжатия : С потерями
Бит/(Пиксели*Кадры) : 0.564
Временной код первого кадра : 00:00:00:00
Оригинал временного кода : Group of pictures header
Размер потока : 932 Мбайт (91%)
Gop_OpenClosed_FirstFrame : Closed

Аудио
Идентификатор : 189 (0xBD)-128 (0x80)
Формат : AC-3
Формат/Информация : Audio Coding 3
Расширение режима : CM (complete main)
Параметр Endianness формата : Big
Режим смешивания : DVD-Video
Продолжительность : 22 м.
Вид битрейта : Постоянный
Битрейт : 448 Кбит/сек
Каналы : 6 каналов
Расположение каналов : Front: L C R, Side: L R, LFE
Частота : 48,0 КГц
Битовая глубина : 16 бит
Метод сжатия : С потерями
Размер потока : 71,4 Мбайт (7%)










pb.wtf



Скачать Ровер через торрент http://i67.fastpic.ru/big/2014/1126/77/ef9183bc7b7644ed07ecd857e8ed2c77.png Скачать фильм Ровер через торрент бесплантно в хорошем качестве Описание: Неприглядное ближайшее будущее, когда происходит развал мировой экономики, и общество начинает скатываться в пропасть ... 10 10 6
Торрент: Зарегистрирован [2015-04-07 14:55] · скачан: 36 раз
Статус: √ проверено
Размер: 3.84 GB
Как cкачать? Как скачать Ровер через торрент | UTorrent

28-11-2019 20:33  

Отключить всю рекламу на сайте

    Дорогой пользователь! Огромная просьба, поблагодарите релизера, оцените раздачу и оставьте свои комментарий, если Вы скачали Ровер через торрент бесплатно! Внесите свою лепту в развитие PiratBit!
    Комментировать посты могут только пользователи прошедшие не сложную регистрацию
    Показать сообщения:    

    Ровер через торрент
    Скачать бесплатно Ровер
    Ровер скачать торрент
    Ровер смотреть онлайн
    Cкачать фильм Ровер бесплатно
    Ровер скачать торрент в хорошем качестве
    Ровер смотреть онлайн бесплатно в хорошем качестве


    Вы не можете начинать темы
    Вы не можете отвечать на сообщения
    Вы не можете редактировать свои сообщения
    Вы не можете удалять свои сообщения
    Вы не можете голосовать в опросах
    Вы не можете прикреплять файлы к сообщениям
    Вы можете скачивать файлы