Ссылка на приватное зеркало нашего сайта всего за 1$. Внимание количество ограничено!!!

2 сезон

iTunes

1 сезон

1

2 сезон

2 сезон

iTunes

1 сезон

RePack

30

Новинка

ВАЖНО

ИГРА 18+

pack

RePack

MK11
pack

Забери бонус

RePack

jed

!!Акция!!

Alien_Rage

RePack

fifa19

RePack

Assassins Creed: Odyssey

RePack

NEED FOR SPEED™ PAYBACK

4 сезон

9 сезон

Бесстыжие 9 сезон

Все сериалы

все сериалы на PB.wtf

RePack

FAR CRY 5
  

Эхо войны / An Act of War (Ryan M. Kennedy) [2015, США, триллер, драма, военный, WEB-DLRip) VO [Levelin] pb.wtf

Эхо войны через торрент pb.wtf

Размер: 1.46 GB | Добавлен: 5 лет 7 мес. назад | Торрент скачан:117 раз
Скачать  

08-04-2015 01:22 Эхо войны Скачать торрент  

Эхо войны /An Act of War


  • Год выпуска: 2015
  • Страна: США
  • Жанр: триллер, драма, военный
  • Продолжительность: 01:39:12
  • Перевод: Любительский (одноголосый) [Levelin]

  • Режиссер: Ryan M. Kennedy
  • В ролях:

    Расс Руссо (Jacob Nicks), Наташа Алам (Ivana), Даг Э. Даг (Marlon), Джозеф Р. Ганнасколи (Frank), Роберт Миано (Sully), Кайова Гордон (Private LockLear), Стэн Карп (Tito), Matthew D'Olimpio (Ivana's Date), Джон Фарнворт (Mr. O'Brian), Кевин Интердонато (The Stalker), Илья Константин (Murderer #1), Крис Лэнг (The Murderer)

  • Описание:
    Борясь с бессонницей и пост-травматическим стрессом, ветеран войны работает по ночам киномехаником в старом кинотеатре. Пытаясь адаптироваться к гражданской жизни, он обнаруживает себя погрязшим в неизбежной паутине обольщения, наркомании, и насилия.
  • Рейтинг:



  • Качество: WEB-DLRip
  • Формат: :AVI
  • Видео кодек: XviD
  • Аудио кодек: AC3
  • Видео: 720x384 (1.875), 1702 kbps, 23,976 fps, 0,257 bpp
  • Аудио №1: Русский 2.0 / 48 kHz / 192 kbps / 16 bit
  • Аудио №2: Английский 2.0 / 48 kHz / 192 kbps / 16 bit
  • Релиз от: GEKADOL

    Код:

    General
    Complete name                            : I:\An.Act.of.War.2015.HDRip.1400Mb.FreeRutor.avi
    Format                                   : AVI
    Format/Info                              : Audio Video Interleave
    File size                                : 1.46 GiB
    Duration                                 : 1h 39mn
    Overall bit rate                         : 2 101 Kbps
    Writing application                      : VirtualDubModRus 1.5.10.2 (build 2542/release)
    Writing library                          : VirtualDubMod build 2542/release

    Video
    ID                                       : 0
    Format                                   : MPEG-4 Visual
    Format profile                           : Advanced Simple@L5
    Format settings, BVOP                    : 2
    Format settings, QPel                    : No
    Format settings, GMC                     : No warppoints
    Format settings, Matrix                  : Default (H.263)
    Codec ID                                 : XVID
    Codec ID/Hint                            : XviD
    Duration                                 : 1h 39mn
    Bit rate                                 : 1 702 Kbps
    Width                                    : 720 pixels
    Height                                   : 384 pixels
    Display aspect ratio                     : 1.875
    Frame rate                               : 23.976 fps
    Color space                              : YUV
    Chroma subsampling                       : 4:2:0
    Bit depth                                : 8 bits
    Scan type                                : Progressive
    Compression mode                         : Lossy
    Bits/(Pixel*Frame)                       : 0.257
    Stream size                              : 1.18 GiB (81%)
    Writing library                          : XviD 66

    Audio #1
    ID                                       : 1
    Format                                   : AC-3
    Format/Info                              : Audio Coding 3
    Mode extension                           : CM (complete main)
    Codec ID                                 : 2000
    Duration                                 : 1h 39mn
    Bit rate mode                            : Constant
    Bit rate                                 : 192 Kbps
    Channel(s)                               : 2 channels
    Channel positions                        : Front: L R
    Sampling rate                            : 48.0 KHz
    Bit depth                                : 16 bits
    Compression mode                         : Lossy
    Stream size                              : 136 MiB (9%)
    Alignment                                : Split accross interleaves
    Interleave, duration                     : 42 ms (1.00 video frame)
    Interleave, preload duration             : 500 ms

    Audio #2
    ID                                       : 2
    Format                                   : AC-3
    Format/Info                              : Audio Coding 3
    Mode extension                           : CM (complete main)
    Codec ID                                 : 2000
    Duration                                 : 1h 39mn
    Bit rate mode                            : Constant
    Bit rate                                 : 192 Kbps
    Channel(s)                               : 2 channels
    Channel positions                        : Front: L R
    Sampling rate                            : 48.0 KHz
    Bit depth                                : 16 bits
    Compression mode                         : Lossy
    Stream size                              : 136 MiB (9%)
    Alignment                                : Split accross interleaves
    Interleave, duration                     : 42 ms (1.00 video frame)
    Interleave, preload duration             : 500 ms




    Скриншоты:



    pb.wtf



  • Скачать Эхо войны через торрент http://i67.fastpic.ru/big/2015/0408/60/d7e2a8e41dbc8f02679e65e993289260.jpg Скачать фильм Эхо войны через торрент бесплантно в хорошем качестве Описание: Борясь с бессонницей и пост-травматическим стрессом, ветеран войны работает по ночам киномехаником в старом кинотеатре. Пытаясь ... 10 10 4
    Торрент: Зарегистрирован [2015-04-08 01:22] · скачан: 117 раз
    Статус: T временная
    Размер: 1.46 GB
    Как cкачать? Как скачать Эхо войны через торрент | qTorrent

    % Раздел Тема Автор DL S | L
    T Фильмы (WEB-DL 720p, 1080p) [ 2.95 GB ] Эхо войны / An Act of War [2015 военный WEB-DL 720p) VO [Levelin] + ENG + SUB GEKADOL Скачать
    1 | 0


    Последний раз редактировалось: GEKADOL (2015-04-09 10:27), всего редактировалось 1 раз

    28-11-2019 20:33  

    Отключить всю рекламу на сайте

    08-04-2015 08:26 Эхо войны Скачать торрент  

    GEKADOL писал(а):

    Перевод: Любительский

    T временнаяpb.wtf



      Дорогой пользователь! Огромная просьба, поблагодарите релизера, оцените раздачу и оставьте свои комментарий, если Вы скачали Эхо войны через торрент бесплатно! Внесите свою лепту в развитие PiratBit!
      Комментировать посты могут только пользователи прошедшие не сложную регистрацию
      Показать сообщения:    

      Эхо войны через торрент
      Скачать бесплатно Эхо войны
      Эхо войны скачать торрент
      Эхо войны смотреть онлайн
      Cкачать фильм Эхо войны бесплатно
      Эхо войны скачать торрент в хорошем качестве
      Эхо войны смотреть онлайн бесплатно в хорошем качестве


      Вы не можете начинать темы
      Вы не можете отвечать на сообщения
      Вы не можете редактировать свои сообщения
      Вы не можете удалять свои сообщения
      Вы не можете голосовать в опросах
      Вы не можете прикреплять файлы к сообщениям
      Вы можете скачивать файлы