Ссылка на приватное зеркало всего за 1$. Внимание количество ограничено!!!

OK

1+1

iTunes

мы

OK

1

WEB-DLRip

Джокер

Пифагор

Ведьмак / The Witcher сериал

iTunes

ПШазам

ОК

Оно 2

iTunes

30
pack

Вам бонус

ВАЖНО

!!Акция!!

Alien_RageХит недели

RePack

Resident Evil 21

ИГРА 18+

pack

RePack

jed

RePack

fifa19

RePack

Assassins Creed: Odyssey

RePack

NEED FOR SPEED™ PAYBACK

4 сезон

9 сезон

Бесстыжие 9 сезон

Все сериалы

все сериалы на PB.wtf

RePack

FAR CRY 5
  

Любой день / Any Day (Растем Бренемен / Rustam Branaman) [2015, США, триллер, драма, мелодрама, WEB-DLRip) Профессиональный (многоголосый) pb.wtf

Любой день через торрент pb.wtf

Размер: 1.45 GB | Добавлен: 4 года 9 мес. назад | Торрент скачан:697 раз
Скачать  

08-04-2015 01:39 Любой день Скачать торрент  

Любой день / Any Day


  • Год выпуска: 2015
  • Страна: США
  • Жанр: триллер, драма, мелодрама
  • Продолжительность: 01:39:05
  • Перевод: Профессиональный (многоголосый)

  • Режиссер: Растем Бренемен / Rustam Branaman
  • В ролях:

    Шон Бин (Vian), Ева Лонгория (Jolene), Кейт Уолш (Bethley), Шейн Блэк (Gino), Том Арнольд (Roland), Леонард Робертс (Troy), Уилла Форд (Cherry), Пол Бен-Виктор (William), Аэдин Минкс (Lee), Нолан Гросс (Jimmy, Vian's nephew), Питер Маккензи (Dr. Cole), Растем Бренемен (Slim)

  • Описание:
    Бывший боксер пытается начать новую жизнь, но ему на дает покоя его нелегкое прошлое.
  • Рейтинг:



  • Качество: WEB-DLRip
  • Формат: :AVI
  • Видео кодек: XviD
  • Аудио кодек: AC3
  • Видео: 720x304 (2.35:1), 1698 kbps, 23,976 fps, 0,324 bpp
  • Аудио: 2.0 / 48 kHz / 384 kbps / 16 bit
  • Релиз от: GEKADOL

    Код:

    General
    Complete name                            : I:\Luboy.den.2015.WEB-DLRip.1.45GB.avi
    Format                                   : AVI
    Format/Info                              : Audio Video Interleave
    File size                                : 1.45 GiB
    Duration                                 : 1h 39mn
    Overall bit rate                         : 2 091 Kbps
    Writing application                      : VirtualDubMod 1.5.10.2 (build 2540/release)
    Writing library                          : VirtualDubMod build 2540/release

    Video
    ID                                       : 0
    Format                                   : MPEG-4 Visual
    Format profile                           : Advanced Simple@L5
    Format settings, BVOP                    : 2
    Format settings, QPel                    : No
    Format settings, GMC                     : No warppoints
    Format settings, Matrix                  : Default (H.263)
    Muxing mode                              : Packed bitstream
    Codec ID                                 : XVID
    Codec ID/Hint                            : XviD
    Duration                                 : 1h 39mn
    Bit rate                                 : 1 698 Kbps
    Width                                    : 720 pixels
    Height                                   : 304 pixels
    Display aspect ratio                     : 2.35:1
    Frame rate                               : 23.976 fps
    Color space                              : YUV
    Chroma subsampling                       : 4:2:0
    Bit depth                                : 8 bits
    Scan type                                : Progressive
    Compression mode                         : Lossy
    Bits/(Pixel*Frame)                       : 0.324
    Stream size                              : 1.18 GiB (81%)
    Writing library                          : XviD 73

    Audio
    ID                                       : 1
    Format                                   : AC-3
    Format/Info                              : Audio Coding 3
    Mode extension                           : CM (complete main)
    Codec ID                                 : 2000
    Duration                                 : 1h 39mn
    Bit rate mode                            : Constant
    Bit rate                                 : 384 Kbps
    Channel(s)                               : 2 channels
    Channel positions                        : Front: L R
    Sampling rate                            : 48.0 KHz
    Bit depth                                : 16 bits
    Compression mode                         : Lossy
    Stream size                              : 272 MiB (18%)
    Alignment                                : Split accross interleaves
    Interleave, duration                     : 42 ms (1.00 video frame)
    Interleave, preload duration             : 500 ms




    Скриншоты:



    pb.wtf



  • Скачать Любой день через торрент http://i66.fastpic.ru/big/2015/0408/b2/00e683f513e78f831a0c9639007e45b2.jpg Скачать фильм Любой день через торрент бесплантно в хорошем качестве Описание: Бывший боксер пытается начать новую жизнь, но ему на дает покоя его нелегкое ... 9.1 10 14
    Торрент: Зарегистрирован [2015-04-08 01:39] · скачан: 697 раз
    Статус: T временная
    Размер: 1.45 GB
    Как cкачать? Как скачать Любой день через торрент | qTorrent

    % Раздел Тема Автор DL S | L
    Фильмы (WEB-DL 720p, 1080p) [ 3.32 GB ] Любой день / Any Day [2015 WEB-DL 720p] MVO + ENG + SUB GEKADOL Скачать
    1 | 0

    28-11-2019 20:33  

    Отключить всю рекламу на сайте

      Дорогой пользователь! Огромная просьба, поблагодарите релизера, оцените раздачу и оставьте свои комментарий, если Вы скачали Любой день через торрент бесплатно! Внесите свою лепту в развитие PiratBit!
      Комментировать посты могут только пользователи прошедшие не сложную регистрацию
      Показать сообщения:    

      Любой день через торрент
      Скачать бесплатно Любой день
      Любой день скачать торрент
      Любой день смотреть онлайн
      Cкачать фильм Любой день бесплатно
      Любой день скачать торрент в хорошем качестве
      Любой день смотреть онлайн бесплатно в хорошем качестве


      Вы не можете начинать темы
      Вы не можете отвечать на сообщения
      Вы не можете редактировать свои сообщения
      Вы не можете удалять свои сообщения
      Вы не можете голосовать в опросах
      Вы не можете прикреплять файлы к сообщениям
      Вы можете скачивать файлы