новый адрес
Ссылка на приватное зеркало всего за 1$. Внимание количество ограничено!!!

iTunes

1+1

iTunes

мы

WEB-DL

1

iTunes

Чернобыль

iTunes

Ральф против интернета

Лицензия

ПШазам

Лицензия

Оно 2

Лицензия

30
pack

Вам бонус

ВАЖНО

!!Акция!!

Alien_RageХит недели

RePack

Resident Evil 21

ИГРА 18+

pack

RePack

jed

!!Акция!!

Alien_Rage

RePack

fifa19

RePack

Assassins Creed: Odyssey

RePack

NEED FOR SPEED™ PAYBACK

3 сезон

9 сезон

Бесстыжие 9 сезон

Все сериалы

все сериалы на PB.wtf

RePack

FAR CRY 5
Ребята, катастрофически не хватает 1900р. для оплаты серверов за Октябрь (всвязи с блокировками трафик упал в 3 раза), 1-2р., выручайте.
  

Выше радуги (Георгий Юнгвальд-Хилькевич) [1986 г. мюзикл, семейный, DVDRip, XviD] pb.wtf

Выше радуги через торрент pb.wtf

Размер: 2.72 GB | Добавлен: 4 года 8 мес. назад | Торрент скачан:42 раза
Скачать  

08-04-2015 11:45 Выше радуги Скачать торрент  

Выше радуги (ТВ)

Год выпуска: 1986
Страна: СССР
Жанр: мюзикл, фэнтези, мелодрама, семейный
Продолжительность: 02:24:05
Режиссер: Георгий Юнгвальд-Хилькевич
В ролях: Дмитрий Марьянов (Алик Радуга), Екатерина Парфенова (Даша), Юрий Куклачев (Иван Иванович), Ольга Машная (Учительница физкультуры), Галина Польских (Александра Ильинична), Михаил Боярский (Отец), Елена Аминова (Мать), Елена Попова (Леночка), Арунас Сторпирстис, Наталья Ветлицкая, Татьяна Басова (Светлана Михайловна), Анатолий Красник (Борщев)
Описание:
Алик Радуга хорошо учился, но успехов в спорте достичь не мог. Однажды волшебница наделила его даром прыгать выше всех, но если Алик когда-нибудь солжет - волшебство исчезнет. Чтобы защитить девочку, Алик сказал неправду, и волшебные чары развеялись. Однако упорными тренировками он добился подлинных побед.
Рейтинг:

Качество: DVDRip
Формат: AVI
Видео кодек: XviD
Аудио кодек:AC3
Видео: XviD, 704x528 (4:3), 2497 kbps, 25 fps, 0,269 bpp
Аудио: AC3 / 2.0 / 48 kHz / 192 kbps / 16 bit
Общее
Полное имя : D:\Vishe.radugi.1986.XviD.DVDRip.avi
Формат : AVI
Формат/Информация : Audio Video Interleave
Профиль формата : OpenDML
Размер файла : 2,72 Гбайт
Продолжительность : 2 ч. 24 м.
Общий поток : 2701 Кбит/сек
Программа кодирования : VirtualDubMod 1.5.10.3 | (build 2550/release)
Библиотека кодирования : VirtualDubMod build 2550/release

Видео
Идентификатор : 0
Формат : MPEG-4 Visual
Профиль формата : Advanced Simple@L5
Параметр BVOP формата : 2
Параметр QPel формата : Нет
Параметр GMC формата : Без точки перехода
Параметр матрицы формата : Default (H.263)
Идентификатор кодека : XVID
Идентификатор кодека/Подсказка : XviD
Продолжительность : 2 ч. 24 м.
Битрейт : 2498 Кбит/сек
Ширина : 704 пикселя
Высота : 528 пикселей
Соотношение сторон : 4:3
Частота кадров : 25,000 кадров/сек
Цветовое пространство : YUV
Субдискретизация насыщенности : 4:2:0
Битовая глубина : 8 бит
Тип развёртки : Прогрессивная
Метод сжатия : С потерями
Бит/(Пиксели*Кадры) : 0.269
Размер потока : 2,51 Гбайт (92%)
Библиотека кодирования : XviD 1.2.1 (UTC 2008-12-04)

Аудио
Идентификатор : 1
Формат : AC-3
Формат/Информация : Audio Coding 3
Расширение режима : CM (complete main)
Параметр Endianness формата : Big
Идентификатор кодека : 2000
Продолжительность : 2 ч. 24 м.
Вид битрейта : Постоянный
Битрейт : 192 Кбит/сек
Каналы : 2 канала
Расположение каналов : Front: L R
Частота : 48,0 КГц
Битовая глубина : 16 бит
Метод сжатия : С потерями
Размер потока : 198 Мбайт (7%)
Выравнивание : Разделение по промежуткам
Продолжительность промежутка : 40 мс. (1,00 видеокадр)
Время предзагрузки промежутка : 500 мс.
pb.wtf



Скачать Выше радуги через торрент http://i5.imageban.ru/out/2015/04/08/70dc1a2ceb62c349166f31addfba3b40.jpg Скачать фильм Выше радуги через торрент бесплантно в хорошем качестве Описание: Алик Радуга хорошо учился, но успехов в спорте достичь не мог. Однажды волшебница наделила его даром прыгать выше всех, но если ... 10 10 5
Info! Золотая раздача, скачанное не засчитывается.
Торрент: Зарегистрирован [2015-04-08 11:45] · скачан: 42 раз
Статус: √ проверено
Размер: 2.72 GB
Как cкачать? Как скачать Выше радуги через торрент | qTorrent

28-11-2019 20:33  

Отключить всю рекламу на сайте

    Дорогой пользователь! Огромная просьба, поблагодарите релизера, оцените раздачу и оставьте свои комментарий, если Вы скачали Выше радуги через торрент бесплатно! Внесите свою лепту в развитие PiratBit!
    Комментировать посты могут только пользователи прошедшие не сложную регистрацию
    Показать сообщения:    

    Выше радуги через торрент
    Скачать бесплатно Выше радуги
    Выше радуги скачать торрент
    Выше радуги смотреть онлайн
    Cкачать фильм Выше радуги бесплатно
    Выше радуги скачать торрент в хорошем качестве
    Выше радуги смотреть онлайн бесплатно в хорошем качестве


    Вы не можете начинать темы
    Вы не можете отвечать на сообщения
    Вы не можете редактировать свои сообщения
    Вы не можете удалять свои сообщения
    Вы не можете голосовать в опросах
    Вы не можете прикреплять файлы к сообщениям
    Вы можете скачивать файлы