Ссылка на приватное зеркало нашего сайта всего за 1$. Внимание количество ограничено!!!

2 сезон

iTunes

1 сезон

1

iTunes

iTunes

iTunes

1 сезон

RePack

30

ИГРА 18+

pack

ВАЖНО

!!Акция!!

Alien_RageХит недели

RePack

MK11
pack

Забери бонус

RePack

jed

!!Акция!!

Alien_Rage

RePack

fifa19

RePack

Assassins Creed: Odyssey

RePack

NEED FOR SPEED™ PAYBACK

4 сезон

9 сезон

Бесстыжие 9 сезон

Все сериалы

все сериалы на PB.wtf

RePack

FAR CRY 5
  

Погребенный заживо / Buried (Родриго Кортес) [2010 г., Триллер, драма, детектив, BDRip 1080p], DUB pb.wtf

Погребенный заживо через торрент pb.wtf

Размер: 7.75 GB | Добавлен: 5 лет 6 мес. назад | Торрент скачан:275 раз
Скачать  

08-04-2015 17:51 Погребенный заживо Скачать торрент  


Информация о фильме

Русское название: Погребенный заживо
Оригинальное название: Buried
Год выхода: 2010
Жанр: триллер, драма, детектив
Режиссер: Родриго Кортес
Выпущено: Испания, США, Франция
Продолжительность: 01:35:27
Перевод: Дублированный
В ролях: Райан Рейнольдс, Хосе Луис Гарсия Перез, Роберт Патерсон, Стивен Тоболовски, Саманта Мэтис, Ивана Миньо, Уорнер Лафлин, Эрик Палладино, Кали Роча, Крис Мартин




Сюжет фильма

Герой фильма Пол, находящийся в Ираке по контракту, во время засады теряет сознание и спустя время приходит в себя в странном тесном темном месте. Не трудно догадаться, что воспользовавшись зажигалкой, Пол обнаруживает себя похороненным в гробу. Ему предстоит пережить много страшных, психологически тяжелых, физически невозможных мгновений борьбы за собственную жизнь в попытках выбраться из неожиданной ловушки…




Файл
Качество: BDRip 1080p (исходник Blu-ray Disc Remux)
Видео: 1916x816, 10353 Кбит/сек, 23,976 кадр/сек, AVC, x264, High@L4.1, 2.35:1, 0.276 Бит/[Пиксели*Кадры]
Аудио 1: AC-3, 640 Кбит/сек, 6 канала(ов), 48,0 КГц - Дублированный / Русский
Аудио 2: AC-3, 640 Кбит/сек, 6 канала(ов), 48,0 КГц - Оригинал / Английский
Субтитры: Русские | Полные, Английские | Полные
Форсированные субтитры: Нет
Чаптеры (Главы): Есть
Автор Рипа: Сообщество:
Format : Matroska
Format version : Version 2
File size : 7.75 GiB
Duration : 1h 35mn
Overall bit rate : 11.6 Mbps
Movie name : Погребенный заживо.(2010).BDRip.1080p.[envy]
Encoded date : UTC 2015-04-07 06:33:45
Writing application : mkvmerge v5.8.0 ('No Sleep / Pillow') built on Sep 2 2012 15:37:04
Writing library : libebml v1.2.3 + libmatroska v1.3.0

Video
ID : 1
Format : AVC
Format/Info : Advanced Video Codec
Format profile : High@L4.1
Format settings, CABAC : Yes
Format settings, ReFrames : 5 frames
Codec ID : V_MPEG4/ISO/AVC
Duration : 1h 35mn
Bit rate : 10.4 Mbps
Width : 1 916 pixels
Height : 816 pixels
Display aspect ratio : 2.35:1
Frame rate mode : Constant
Frame rate : 23.976 fps
Color space : YUV
Chroma subsampling : 4:2:0
Bit depth : 8 bits
Scan type : Progressive
Bits/(Pixel*Frame) : 0.276
Stream size : 6.74 GiB (87%)
Title : Погребенный заживо.(2010).BDRip.1080p.[envy]
Writing library : x264 core 146 r2538 121396c
Encoding settings : cabac=1 / ref=5 / deblock=1:-3:-3 / analyse=0x3:0x133 / me=umh / subme=11 / psy=1 / psy_rd=1.00:0.00 / mixed_ref=1 / me_range=32 / chroma_me=1 / trellis=2 / 8x8dct=1 / cqm=0 / deadzone=21,11 / fast_pskip=0 / chroma_qp_offset=-2 / threads=12 / lookahead_threads=2 / sliced_threads=0 / nr=0 / decimate=1 / interlaced=0 / bluray_compat=0 / constrained_intra=0 / bframes=8 / b_pyramid=2 / b_adapt=2 / b_bias=0 / direct=3 / weightb=1 / open_gop=0 / weightp=2 / keyint=240 / keyint_min=23 / scenecut=40 / intra_refresh=0 / rc=2pass / mbtree=0 / bitrate=10353 / ratetol=2.0 / qcomp=0.60 / qpmin=0 / qpmax=69 / qpstep=4 / cplxblur=20.0 / qblur=0.5 / ip_ratio=1.40 / pb_ratio=1.30 / aq=2:0.90
Language : English
Default : Yes
Forced : No

Audio #1
ID : 2
Format : AC-3
Format/Info : Audio Coding 3
Mode extension : CM (complete main)
Format settings, Endianness : Big
Codec ID : A_AC3
Duration : 1h 35mn
Bit rate mode : Constant
Bit rate : 640 Kbps
Channel(s) : 6 channels
Channel positions : Front: L C R, Side: L R, LFE
Sampling rate : 48.0 KHz
Bit depth : 16 bits
Compression mode : Lossy
Stream size : 437 MiB (6%)
Title : Dub
Language : Russian
Default : Yes
Forced : No

Audio #2
ID : 3
Format : AC-3
Format/Info : Audio Coding 3
Mode extension : CM (complete main)
Format settings, Endianness : Big
Codec ID : A_AC3
Duration : 1h 35mn
Bit rate mode : Constant
Bit rate : 640 Kbps
Channel(s) : 6 channels
Channel positions : Front: L C R, Side: L R, LFE
Sampling rate : 48.0 KHz
Bit depth : 16 bits
Compression mode : Lossy
Stream size : 437 MiB (6%)
Title : Eng
Language : English
Default : No
Forced : No

Text #1
ID : 4
Format : UTF-8
Codec ID : S_TEXT/UTF8
Codec ID/Info : UTF-8 Plain Text
Title : Rus full
Language : Russian
Default : No
Forced : No

Text #2
ID : 5
Format : UTF-8
Codec ID : S_TEXT/UTF8
Codec ID/Info : UTF-8 Plain Text
Title : Eng full
Language : English
Default : No
Forced : No

Menu
00:00:00.000 : en:Blindness
00:04:25.265 : en:Light
00:09:29.569 : en:Cell Phone
00:15:47.071 : en:FBI
00:20:42.866 : en:Help?
00:24:55.118 : en:Get Me The Number
00:33:18.162 : en:Take The Call
00:39:27.156 : en:What About Me?
00:46:16.398 : en:Anxious
00:49:29.591 : en:It's Paul
00:55:43.340 : en:Unexpected Attack
01:03:48.074 : en:Incoming Message
01:09:30.166 : en:Terminated
01:15:34.029 : en:Losing Hope
01:23:00.475 : en:Show Blood
01:27:18.483 : en:Have To Hurry

pb.wtf



Скачать Погребенный заживо через торрент http://pic1.kartinco.top/images/10/7luz5.jpg Скачать фильм Погребенный заживо через торрент бесплантно в хорошем качестве В ролях: Райан Рейнольдс, Хосе Луис Гарсия Перез, Роберт Патерсон, Стивен Тоболовски, Саманта Мэтис, Ивана Миньо, Уорнер Лафлин, Эрик ... 9.8 10 9
Info! Золотая раздача, скачанное не засчитывается.
Торрент: Зарегистрирован [2015-04-08 17:51] · скачан: 275 раз
Статус: √ проверено
Размер: 7.75 GB
Как cкачать? Как скачать Погребенный заживо через торрент | qTorrent

% Раздел Тема Автор DL S | L
Фильмы [HD 720p, 1080p] (Хороший звук DUB, MVO) [ 12.49 GB ] Погребённый заживо / Buried [2010 BDRip 1080p by msltel] DUB 2 x AVO msltel Скачать
1 | 0
Фильмы [HD 720p, 1080p] (Хороший звук DUB, MVO) [ 4.8 GB ] Погребённый заживо / Buried [2010 BDRip 720p by msltel] DUB 2 x AVO msltel Скачать
1 | 0

28-11-2019 20:33  

Отключить всю рекламу на сайте

08-04-2015 17:57 Погребенный заживо Скачать торрент  

Фильм неожиданно хорош оказался...держит до конца!pb.wtf



08-04-2015 18:16 Погребенный заживо Скачать торрент  

Смотрел давно любительский перевод.Всё происходит в гробу,точнее в ящике.Пять минут на земле,не в земле.Хз тогда по нравился,не обычно.Что то на поминает Евреев в танке на кукурузном поле, забыл как фильм называется.Здесь он один там хоть был экипаж.Короче одно замкнутое пространство.Бюджет можно снять на смартфон.Раздающему респект за труды.Второй раз смотреть не буду.pb.wtf





Последний раз редактировалось: rayl116rus (2015-04-08 18:31), всего редактировалось 2 раз(а)

08-04-2015 18:18 Погребенный заживо Скачать торрент  

драма затягивает. скучно не будет.pb.wtf



08-04-2015 19:53 Погребенный заживо Скачать торрент  

на одном дыхании pb.wtf



    Дорогой пользователь! Огромная просьба, поблагодарите релизера, оцените раздачу и оставьте свои комментарий, если Вы скачали Погребенный заживо через торрент бесплатно! Внесите свою лепту в развитие PiratBit!
    Комментировать посты могут только пользователи прошедшие не сложную регистрацию
    Показать сообщения:    

    Погребенный заживо через торрент
    Скачать бесплатно Погребенный заживо
    Погребенный заживо скачать торрент
    Погребенный заживо смотреть онлайн
    Cкачать фильм Погребенный заживо бесплатно
    Погребенный заживо скачать торрент в хорошем качестве
    Погребенный заживо смотреть онлайн бесплатно в хорошем качестве


    Вы не можете начинать темы
    Вы не можете отвечать на сообщения
    Вы не можете редактировать свои сообщения
    Вы не можете удалять свои сообщения
    Вы не можете голосовать в опросах
    Вы не можете прикреплять файлы к сообщениям
    Вы можете скачивать файлы