Доктор Стрэндж

Лицензия

Добыча

Дубляж

Уэнсдэй

1 сезон

Тор

Дубляж

В эфире

Дубляж

Там, где раки поют

MVO

Властелин колец

1 сезон

Deluxe

pack

Рекомендуем

30

Пиратка

ВАЖНО

ВАЖНО

Ghostwire

Пиратка

jed

RePack

nioh2

RePack

RDR2

RePack

NEED FOR SPEED™ PAYBACK

RePack

скачать торрент

Кинопоиск HD

Острые козырьки 6 сезон

6 сезон

FAR CRY 6

RePack

скачать торрент

Лицензия

скачать торрент

MVO

1

1 сезон

скачать торрент

1 сезон

скачать торрент

Лицензия

  

Дни грома / Days of Thunder (Тони Скотт) [1990, драма, спорт, мелодрама, BDRip 720p] 2 x MVO, 3 x DVO, 5 x AVO

Дни грома через торрент pb.wtf

Размер: 6.36 GB | Добавлен: 7 лет 8 мес. назад | Торрент скачан:32 раза
Смотреть онлайн | Скачать   

09-04-2015 08:01 Дни грома Скачать торрент  

Дни грома / Days of Thunder

Год выпуска: 1990
Страна: США
Жанр: драма, спорт, мелодрама
Продолжительность: 01:47:17
Перевод: профессиональный многоголосый, профессиональный двухголосый, авторский
Субтитры: русские, английские (все отдельно)

Режиссёр: Тони Скотт

В ролях: Том Круз, Николь Кидман, Роберт Дювалл, Рэнди Куэйд, Кэри Элвис, Майкл Рукер, Фред Долтон Томпсон, Джон С. Райлли, Дж. К. Куин, Дон Симпсон, Кэролин Уильямс, Донна В. Скотт, Крис Эллис, Питер Эппел, Стивен Майкл Айерс, Майк Слэттери, Барбара Гэррик, Джералд Р. Молен, Таня Кольридж, Александра Белахойтис, Стив Бойд, Дэниэл Д. Гринвуд, Джим Гримшоу, Джеймс Мартин мл., Марго Мартиндейл, Майкл Берджесс, Джим Краузер, Джеймс Д. Хенсон, Шари Эллис, Лейлани Сарелл, Ксавьер Коронел, Ник Сирси, Джерри Панч, Гарри П. Гант, Расти Уоллес, Том Ферда, Боб Дженкинс, Ричард Петти, Энтони Синглтон, Майкл Вейн Томас

Описание: Гонщик Коул Трикл молод и мало кому известен, но он не боится скорости и на полном ходу может вписаться в самый крутой поворот. На гонках главным соперником Коула становится более опытный спортсмен Роуди Бернс. Но ни Коул, ни Роуди не доходят до финишной черты. Происходит сильное столкновение, в результате которого соперники оказываются в одной больничной палате...



Качество: BDRip 720p Сравнение с исходником
Формат: MKV
Видео кодек: H.264
Аудио кодек: AC3
Видео: 4431 Кбит/с, 1280x532, 23,976 кадра/с
Аудио 1: русский, AC3, 448 kbps, 6 ch, 48 kHz [профессиональный многоголосый, Премьер Мультимедиа]
Аудио 2: русский, AC3, 192 kbps, 2 ch, 48 kHz [профессиональный многоголосый, CTC]
Аудио 3: русский, AC3, 640 kbps, 6 ch, 48 kHz [профессиональный двухголосый, Superbit]
Аудио 4: русский, AC3, 192 kbps, 2 ch, 48 kHz [профессиональный двухголосый, HTB+]
Аудио 5: русский, AC3, 448 kbps, 6 ch, 48 kHz [авторский, Андрей Гаврилов]
Аудио 6: русский, AC3, 448 kbps, 6 ch, 48 kHz [авторский, Юрий Живов]
Аудио 7: русский, AC3, 448 kbps, 6 ch, 48 kHz [авторский, Юрий Сербин]

Внешние файлы
Аудио: русский, AC3, 192 kbps, 2 ch, 48 kHz [профессиональный двухголосый, Премьер Видео Фильм]
Аудио: русский, AC3, 192 kbps, 2 ch, 48 kHz [авторский, Вартан Дохалов]
Аудио: русский, AC3, 256 kbps, 2 ch, 48 kHz [авторский, Егор Хрусталёв]
Аудио: английский, AC3, 448 kbps, 6 ch, 48 kHz [оригинал]
frame I:1231 Avg QP:19.43 size: 78360
frame P:31320 Avg QP:20.95 size: 43365
frame B:121802 Avg QP:23.37 size: 18284

Общее
Полное имя : D:VideoDni groma.1990.BDRip.720pDni groma.1990.AVO.rus.В.Дохалов.ac3
Формат : AC-3
Формат/Информация : Audio Coding 3
Размер файла : 147 Мбайт
Продолжительность : 1 ч. 47 м.
Режим общего битрейта : Постоянный
Общий поток : 192 Кбит/сек

Аудио
Формат : AC-3
Формат/Информация : Audio Coding 3
Расширение режима : CM (complete main)
Параметр Endianness формата : Big
Продолжительность : 1 ч. 47 м.
Вид битрейта : Постоянный
Битрейт : 192 Кбит/сек
Каналы : 2 канала
Расположение каналов : Front: L R
Частота : 48,0 КГц
Битовая глубина : 16 бит
Метод сжатия : С потерями
Размер потока : 147 Мбайт (100%)

Общее
Полное имя : D:VideoDni groma.1990.BDRip.720pDni groma.1990.AVO.rus.Хрусталёв.ac3
Формат : AC-3
Формат/Информация : Audio Coding 3
Размер файла : 196 Мбайт
Продолжительность : 1 ч. 47 м.
Режим общего битрейта : Постоянный
Общий поток : 256 Кбит/сек

Аудио
Формат : AC-3
Формат/Информация : Audio Coding 3
Расширение режима : CM (complete main)
Параметр Endianness формата : Big
Продолжительность : 1 ч. 47 м.
Вид битрейта : Постоянный
Битрейт : 256 Кбит/сек
Каналы : 2 канала
Расположение каналов : Front: L R
Частота : 48,0 КГц
Битовая глубина : 16 бит
Метод сжатия : С потерями
Размер потока : 196 Мбайт (100%)

Общее
Уникальный идентификатор : 249940489203404247107903663570255679107 (0xBC08C98907B35340BBA10745C4B90E83)
Полное имя : D:VideoDni groma.1990.BDRip.720pDni groma.1990.BDRip.720p.mkv
Формат : Matroska
Версия формата : Version 4 / Version 2
Размер файла : 5,54 Гбайт
Продолжительность : 1 ч. 47 м.
Общий поток : 7394 Кбит/сек
Название фильма : BDRip -- STarankov
Дата кодирования : UTC 2015-04-09 03:12:38
Программа кодирования : mkvmerge v7.8.0 ('River Man') 64bit built on Mar 27 2015 16:31:37
Библиотека кодирования : libebml v1.3.1 + libmatroska v1.4.2
DURATION : 01:47:17.792000000
NUMBER_OF_FRAMES : 201181
NUMBER_OF_BYTES : 360516352
_STATISTICS_WRITING_APP : mkvmerge v7.8.0 ('River Man') 64bit built on Mar 27 2015 16:31:37
_STATISTICS_WRITING_DATE_UTC : 2015-04-09 03:12:38
_STATISTICS_TAGS : BPS DURATION NUMBER_OF_FRAMES NUMBER_OF_BYTES

Видео
Идентификатор : 1
Формат : AVC
Формат/Информация : Advanced Video Codec
Профиль формата : [email protected]
Параметр CABAC формата : Да
Параметр ReFrames формата : 9 кадров
Идентификатор кодека : V_MPEG4/ISO/AVC
Продолжительность : 1 ч. 47 м.
Битрейт : 4431 Кбит/сек
Ширина : 1280 пикселей
Высота : 532 пикселя
Соотношение сторон : 2,40:1
Режим частоты кадров : Постоянный
Частота кадров : 23,976 кадра/сек
Цветовое пространство : YUV
Субдискретизация насыщенности : 4:2:0
Битовая глубина : 8 бит
Тип развёртки : Прогрессивная
Бит/(Пиксели*Кадры) : 0.271
Размер потока : 3,32 Гбайт (60%)
Библиотека кодирования : x264 core 146 r2538 121396c
Настройки программы : cabac=1 / ref=9 / deblock=1:-1:-1 / analyse=0x3:0x113 / me=umh / subme=10 / psy=1 / psy_rd=1.00:0.15 / mixed_ref=1 / me_range=32 / chroma_me=1 / trellis=2 / 8x8dct=1 / cqm=0 / deadzone=21,11 / fast_pskip=1 / chroma_qp_offset=-3 / threads=6 / lookahead_threads=1 / sliced_threads=0 / nr=0 / decimate=1 / interlaced=0 / bluray_compat=0 / constrained_intra=0 / bframes=9 / b_pyramid=2 / b_adapt=2 / b_bias=0 / direct=3 / weightb=1 / open_gop=0 / weightp=2 / keyint=230 / keyint_min=23 / scenecut=40 / intra_refresh=0 / rc_lookahead=40 / rc=crf / mbtree=0 / crf=20.0 / qcomp=0.60 / qpmin=0 / qpmax=69 / qpstep=4 / vbv_maxrate=40000 / vbv_bufsize=50000 / crf_max=0.0 / nal_hrd=none / filler=0 / ip_ratio=1.40 / pb_ratio=1.30 / aq=1:1.00
Язык : English
Default : Да
Forced : Нет
DURATION : 01:47:17.807000000
NUMBER_OF_FRAMES : 154353
NUMBER_OF_BYTES : 3681649801
_STATISTICS_WRITING_APP : mkvmerge v7.8.0 ('River Man') 64bit built on Mar 27 2015 16:31:37
_STATISTICS_WRITING_DATE_UTC : 2015-04-09 03:12:38
_STATISTICS_TAGS : BPS DURATION NUMBER_OF_FRAMES NUMBER_OF_BYTES

Аудио #1
Идентификатор : 2
Формат : AC-3
Формат/Информация : Audio Coding 3
Расширение режима : CM (complete main)
Параметр Endianness формата : Big
Идентификатор кодека : A_AC3
Продолжительность : 1 ч. 47 м.
Вид битрейта : Постоянный
Битрейт : 448 Кбит/сек
Каналы : 6 каналов
Расположение каналов : Front: L C R, Side: L R, LFE
Частота : 48,0 КГц
Битовая глубина : 16 бит
Метод сжатия : С потерями
Размер потока : 344 Мбайт (6%)
Заголовок : MVO (Премьер Мультимедиа)
Язык : Russian
Default : Да
Forced : Нет

Аудио #2
Идентификатор : 3
Формат : AC-3
Формат/Информация : Audio Coding 3
Расширение режима : CM (complete main)
Параметр Endianness формата : Big
Идентификатор кодека : A_AC3
Продолжительность : 1 ч. 47 м.
Вид битрейта : Постоянный
Битрейт : 192 Кбит/сек
Каналы : 2 канала
Расположение каналов : Front: L R
Частота : 48,0 КГц
Битовая глубина : 16 бит
Метод сжатия : С потерями
Размер потока : 147 Мбайт (3%)
Заголовок : MVO (CTC)
Язык : Russian
Default : Нет
Forced : Нет

Аудио #3
Идентификатор : 4
Формат : AC-3
Формат/Информация : Audio Coding 3
Расширение режима : CM (complete main)
Параметр Endianness формата : Big
Идентификатор кодека : A_AC3
Продолжительность : 1 ч. 47 м.
Вид битрейта : Постоянный
Битрейт : 640 Кбит/сек
Каналы : 6 каналов
Расположение каналов : Front: L C R, Side: L R, LFE
Частота : 48,0 КГц
Битовая глубина : 16 бит
Метод сжатия : С потерями
Размер потока : 491 Мбайт (9%)
Заголовок : DVO (Superbit)
Язык : Russian
Default : Нет
Forced : Нет

Аудио #4
Идентификатор : 5
Формат : AC-3
Формат/Информация : Audio Coding 3
Расширение режима : CM (complete main)
Параметр Endianness формата : Big
Идентификатор кодека : A_AC3
Продолжительность : 1 ч. 47 м.
Вид битрейта : Постоянный
Битрейт : 192 Кбит/сек
Каналы : 2 канала
Расположение каналов : Front: L R
Частота : 48,0 КГц
Битовая глубина : 16 бит
Метод сжатия : С потерями
Размер потока : 147 Мбайт (3%)
Заголовок : DVO (HTB+)
Язык : Russian
Default : Нет
Forced : Нет

Аудио #5
Идентификатор : 6
Формат : AC-3
Формат/Информация : Audio Coding 3
Расширение режима : CM (complete main)
Параметр Endianness формата : Big
Идентификатор кодека : A_AC3
Продолжительность : 1 ч. 47 м.
Вид битрейта : Постоянный
Битрейт : 448 Кбит/сек
Каналы : 6 каналов
Расположение каналов : Front: L C R, Side: L R, LFE
Частота : 48,0 КГц
Битовая глубина : 16 бит
Метод сжатия : С потерями
Размер потока : 344 Мбайт (6%)
Заголовок : AVO (Андрей Гаврилов)
Язык : Russian
Default : Нет
Forced : Нет

Аудио #6
Идентификатор : 7
Формат : AC-3
Формат/Информация : Audio Coding 3
Расширение режима : CM (complete main)
Параметр Endianness формата : Big
Идентификатор кодека : A_AC3
Продолжительность : 1 ч. 47 м.
Вид битрейта : Постоянный
Битрейт : 448 Кбит/сек
Каналы : 6 каналов
Расположение каналов : Front: L C R, Side: L R, LFE
Частота : 48,0 КГц
Битовая глубина : 16 бит
Метод сжатия : С потерями
Размер потока : 344 Мбайт (6%)
Заголовок : AVO (Юрий Живов)
Язык : Russian
Default : Нет
Forced : Нет

Аудио #7
Идентификатор : 8
Формат : AC-3
Формат/Информация : Audio Coding 3
Расширение режима : CM (complete main)
Параметр Endianness формата : Big
Идентификатор кодека : A_AC3
Продолжительность : 1 ч. 47 м.
Вид битрейта : Постоянный
Битрейт : 448 Кбит/сек
Каналы : 6 каналов
Расположение каналов : Front: L C R, Side: L R, LFE
Частота : 48,0 КГц
Битовая глубина : 16 бит
Метод сжатия : С потерями
Размер потока : 344 Мбайт (6%)
Заголовок : AVO (Юрий Сербин)
Язык : Russian
Default : Нет
Forced : Нет

Общее
Полное имя : D:VideoDni groma.1990.BDRip.720pDni groma.1990.DVO.rus.Премьер Видео Фильм.ac3
Формат : AC-3
Формат/Информация : Audio Coding 3
Размер файла : 147 Мбайт
Продолжительность : 1 ч. 47 м.
Режим общего битрейта : Постоянный
Общий поток : 192 Кбит/сек

Аудио
Формат : AC-3
Формат/Информация : Audio Coding 3
Расширение режима : CM (complete main)
Параметр Endianness формата : Big
Продолжительность : 1 ч. 47 м.
Вид битрейта : Постоянный
Битрейт : 192 Кбит/сек
Каналы : 2 канала
Расположение каналов : Front: L R
Частота : 48,0 КГц
Битовая глубина : 16 бит
Метод сжатия : С потерями
Размер потока : 147 Мбайт (100%)

Общее
Полное имя : D:VideoDni groma.1990.BDRip.720pDni groma.1990.eng.srt
Формат : SubRip
Размер файла : 94,6 Кбайт

Текст
Формат : SubRip
Метод сжатия : Без потерь

Общее
Полное имя : D:VideoDni groma.1990.BDRip.720pDni groma.1990.Original.eng.ac3
Формат : AC-3
Формат/Информация : Audio Coding 3
Размер файла : 344 Мбайт
Продолжительность : 1 ч. 47 м.
Режим общего битрейта : Постоянный
Общий поток : 448 Кбит/сек

Аудио
Формат : AC-3
Формат/Информация : Audio Coding 3
Расширение режима : CM (complete main)
Параметр Endianness формата : Big
Продолжительность : 1 ч. 47 м.
Вид битрейта : Постоянный
Битрейт : 448 Кбит/сек
Каналы : 6 каналов
Расположение каналов : Front: L C R, Side: L R, LFE
Частота : 48,0 КГц
Битовая глубина : 16 бит
Метод сжатия : С потерями
Размер потока : 344 Мбайт (100%)

Общее
Полное имя : D:VideoDni groma.1990.BDRip.720pDni groma.1990.rus.srt
Формат : SubRip
Размер файла : 118 Кбайт

Текст
Формат : SubRip
Метод сжатия : Без потерь



Скачать Дни грома через торрент http://i66.fastpic.ru/big/2015/0409/c4/bf4eaf269438922f06a02340f4fe53c4.jpg Скачать, смотреть онлайн Дни грома бесплантно в хорошем качестве Описание: Гонщик Коул Трикл молод и мало кому известен, но он не боится скорости и на полном ходу может вписаться в самый крутой поворот. ... 10 10 7
Info! Золотая раздача, скачанное не засчитывается.
Торрент: Зарегистрирован [2015-04-09 08:01] · скачан: 32 раз
Статус: √ проверено
Размер: 6.36 GB
Как cкачать? Как скачать Дни грома через торрент | UTorrent

% Раздел Тема Автор DL S | L
Фильмы [HD 720p, 1080p] (Хороший звук DUB, MVO) [ 14.53 GB ] Дни грома / Days of Thunder | MVO | 1080p msltel Скачать
1 | 0
Фильмы до 2000 г. [ 4.72 GB ] Дни грома / Days of Thunder | MVO | BDRip-AVC msltel Скачать
1 | 0



Последний раз редактировалось: msltel (2015-04-09 10:36), всего редактировалось 3 раз(а)

28-11-2019 20:33  


Отключить вcю реклaмy на сайте, в т.ч. и в плеере онлайн просмотра!

    Дорогой пользователь! Огромная просьба, поблагодарите релизера, оцените раздачу и оставьте свои комментарий, если Вы скачали Дни грома через торрент бесплатно!!
    Комментировать посты могут только пользователи прошедшие не сложную регистрацию
    Показать сообщения:    


    Дни грома через торрент
    Скачать бесплатно Дни грома
    Дни грома скачать торрент
    Дни грома смотреть онлайн
    Cкачать фильм Дни грома бесплатно
    Дни грома скачать торрент в хорошем качестве
    Дни грома смотреть онлайн бесплатно в хорошем качестве
    Вы не можете начинать темы
    Вы не можете отвечать на сообщения
    Вы не можете редактировать свои сообщения
    Вы не можете удалять свои сообщения
    Вы не можете голосовать в опросах
    Вы не можете прикреплять файлы к сообщениям
    Вы можете скачивать файлы
    Дни грома / Days of Thunder [1990, драма, спорт, мелодрама, BDRip 720p] 2 x MVO, 3 x DVO, 5 x AVO смотреть онлайн, скачать торрент picoco.icu