Ссылка на приватное зеркало нашего сайта всего за 1$. Внимание количество ограничено!!!

2 сезон

iTunes

1 сезон

1

iTunes

iTunes

iTunes

1 сезон

RePack

30

ИГРА 18+

pack

ВАЖНО

!!Акция!!

Alien_RageХит недели

RePack

MK11
pack

Забери бонус

RePack

jed

!!Акция!!

Alien_Rage

RePack

fifa19

RePack

Assassins Creed: Odyssey

RePack

NEED FOR SPEED™ PAYBACK

4 сезон

9 сезон

Бесстыжие 9 сезон

Все сериалы

все сериалы на PB.wtf

RePack

FAR CRY 5
  

Вернер – холодный, как лёд / Werner - Eiskalt! (Гернот Ролль ) [2011, мультфильм, комедия, HDRip, Авторский (одноголосый) [Живов] pb.wtf

Вернер – холодный, как лёд через торрент pb.wtf

Размер: 1.46 GB | Добавлен: 5 лет 6 мес. назад | Торрент скачан:167 раз
Скачать  

09-04-2015 09:43 Вернер – холодный, как лёд Скачать торрент  

Вернер – холодный, как лёд / Werner - Eiskalt!


Год выпуска: 2011
Страна: Германия
Жанр: мультфильм, комедия
Продолжительность: 01:37:11
Перевод: Авторский (одноголосый) [Живов]
Режиссер: Гернот Ролль
В ролях:

Редгер Фельдманн (Brösel), Ивонна Шонхер (Barbara), Марисоль Фернандес (Mandy), Рихард Заммель (Hermann Seidel), Калле Хаверланд (Präsi), Энди Фельдманн (Andi), Андреас Фельдманн (Andi), Йохен Никель (Herbert), Михаэль Лотт (Röhre), Торстен Шютт (Walze), Хольгер Хенце (Holgi), Janosch P. Agustin (Holgi - 16 Jahre, озвучка)
Описание:
Мультфильм будет рассказывать о прирождённом гонщике - парне по имени Вернер, который ещё с пеленок уже показывал класс в управлении коляской, а позднее и мотоциклом и прочими транспортными средствами всех видов и расцветок...

Качество: HDRip
Формат: AVI
Видео кодек: XviD
Аудио кодек:AC3
Видео: XviD, 720x384 (1.875), 1756 kbps, 24 fps, 0,265 bpp
Аудио: AC3 / 5.1 / 48 kHz / 384 kbps / 16 bit
Сэмпл

Код:

General
Complete name                            : D:\Загрузка\Verner.holodnyj.kak.led.2011.HDRip.1400Mb.avi
Format                                   : AVI
Format/Info                              : Audio Video Interleave
File size                                : 1.46 GiB
Duration                                 : 1h 37mn
Overall bit rate                         : 2 150 Kbps
Writing application                      : VirtualDubMod 1.5.10.2 (build 2540/release)
Writing library                          : VirtualDubMod build 2540/release

Video
ID                                       : 0
Format                                   : MPEG-4 Visual
Format profile                           : Advanced Simple@L5
Format settings, BVOP                    : 2
Format settings, QPel                    : No
Format settings, GMC                     : No warppoints
Format settings, Matrix                  : Default (MPEG)
Codec ID                                 : XVID
Codec ID/Hint                            : XviD
Duration                                 : 1h 37mn
Bit rate                                 : 1 756 Kbps
Width                                    : 720 pixels
Height                                   : 384 pixels
Display aspect ratio                     : 1.875
Frame rate                               : 24.000 fps
Color space                              : YUV
Chroma subsampling                       : 4:2:0
Bit depth                                : 8 bits
Scan type                                : Progressive
Compression mode                         : Lossy
Bits/(Pixel*Frame)                       : 0.265
Stream size                              : 1.19 GiB (82%)
Writing library                          : XviD 1.2.1 (UTC 2008-12-04)

Audio
ID                                       : 1
Format                                   : AC-3
Format/Info                              : Audio Coding 3
Mode extension                           : CM (complete main)
Codec ID                                 : 2000
Duration                                 : 1h 37mn
Bit rate mode                            : Constant
Bit rate                                 : 384 Kbps
Channel(s)                               : 6 channels
Channel positions                        : Front: L C R, Side: L R, LFE
Sampling rate                            : 48.0 KHz
Bit depth                                : 16 bits
Compression mode                         : Lossy
Stream size                              : 267 MiB (18%)
Alignment                                : Split accross interleaves
Interleave, duration                     : 42 ms (1.00 video frame)
Interleave, preload duration             : 500 ms

Скриншоты:


© Оформление by Серёжк@pb.wtf



Скачать Вернер – холодный, как лёд через торрент http://i2.imageban.ru/out/2015/04/09/4ab2f47f1fe76f06dabc3b95f96907bd.jpg Скачать фильм Вернер – холодный, как лёд через торрент бесплантно в хорошем качестве Описание: Мультфильм будет рассказывать о прирождённом гонщике - парне по имени Вернер, который ещё с пеленок уже показывал класс в ... 6.3 10 3
Торрент: Зарегистрирован [2015-04-09 09:43] · скачан: 167 раз
Статус: √ проверено
Размер: 1.46 GB
Как cкачать? Как скачать Вернер – холодный, как лёд через торрент | qTorrent

28-11-2019 20:33  

Отключить всю рекламу на сайте

    Дорогой пользователь! Огромная просьба, поблагодарите релизера, оцените раздачу и оставьте свои комментарий, если Вы скачали Вернер – холодный, как лёд через торрент бесплатно! Внесите свою лепту в развитие PiratBit!
    Комментировать посты могут только пользователи прошедшие не сложную регистрацию
    Показать сообщения:    

    Вернер – холодный, как лёд через торрент
    Скачать бесплатно Вернер – холодный, как лёд
    Вернер – холодный, как лёд скачать торрент
    Вернер – холодный, как лёд смотреть онлайн
    Cкачать фильм Вернер – холодный, как лёд бесплатно
    Вернер – холодный, как лёд скачать торрент в хорошем качестве
    Вернер – холодный, как лёд смотреть онлайн бесплатно в хорошем качестве


    Вы не можете начинать темы
    Вы не можете отвечать на сообщения
    Вы не можете редактировать свои сообщения
    Вы не можете удалять свои сообщения
    Вы не можете голосовать в опросах
    Вы не можете прикреплять файлы к сообщениям
    Вы можете скачивать файлы