Ссылка на приватное зеркало нашего сайта всего за 1$. Внимание количество ограничено!!!

2 сезон

iTunes

1 сезон

1

iTunes

iTunes

iTunes

1 сезон

RePack

30

ИГРА 18+

pack

ВАЖНО

!!Акция!!

Alien_RageХит недели

RePack

MK11
pack

Забери бонус

RePack

jed

!!Акция!!

Alien_Rage

RePack

fifa19

RePack

Assassins Creed: Odyssey

RePack

NEED FOR SPEED™ PAYBACK

4 сезон

9 сезон

Бесстыжие 9 сезон

Все сериалы

все сериалы на PB.wtf

RePack

FAR CRY 5
  

Заложница 3 / Taken 3 (Оливье Мегатон / Olivier Megaton) [2014, боевик, триллер, BDRip 1080p] 2xDub (Rus, Ukr) + AVO (Гаврилов) + Original + Sub (Rus, Ukr, Eng) [Расширенная версия] pb.wtf

Заложница 3 через торрент pb.wtf

Размер: 19.18 GB | Добавлен: 5 лет 4 мес. назад | Торрент скачан:18 раз
Скачать  

09-04-2015 12:37 Заложница 3 Скачать торрент  

Заложница 3 / Taken 3
«Это конец»



Год выпуска: 2014
Страна: Франция
Жанр: боевик, триллер
Продолжительность: 01:55:18
Перевод: Дублированный [Лицензия]
Субтитры: Русские (Full), Украинские (Full), Английские (Forced + Full)



Режиссер:
  • Оливье Мегатон / Olivier Megaton
В ролях:
  • Лиам Нисон, Мэгги Грэйс, Форест Уитакер, Сэм Спруэлл, Фамке Янссен, Дюгрей Скотт, Дон Харви, Дилан Бруно, Лиленд Орсер, Дэвид Уоршофски, Джон Грайз, Джонни Уэстон
Описание: Жизнь бывшего правительственного агента Брайана Миллса рушится, когда его обвиняют в убийстве, которого он не совершал. Преследуемый опытным инспектором полиции, Миллс пытается отследить настоящего убийцу...



Качество: BDRip 1080p
Формат: MKV
Видео кодек: AVC
Аудио кодек: AC3 / DTS
Видео: 1920x804 (2.40:1), 23,976 fps, 18000 kbps, 0,486 bpp
Аудио №1: русский, 48 kHz, DTS, 5.1 ch, 768 kbps | Дубляж, Blu-ray EUR
Аудио №2: русский, 48 kHz, DTS, 5.1 ch, 1509 kbps | Одноголосый закадровый, А.Гаврилов
Аудио №3: украинский, 48 kHz, AC3, 5.1 ch, 448 kbps | Дубляж, Blu-ray EUR
Аудио №4: английский, 48 kHz, DTS, 5.1 ch, 1510 kbps


Код:

Общее
Уникальный идентификатор                 : 192105996742392575298455662155595417018 (0x908644E7D1423ABFA7D595C2D5A285BA)
Полное имя                               : D:\Заложница 3 [Extended] (2014) BDRip 1080p.mkv
Формат                                   : Matroska
Версия формата                           : Version 4 / Version 2
Размер файла                             : 19,2 Гбайт
Продолжительность                        : 1 ч. 55 м.
Общий поток                              : 23,8 Мбит/сек
Дата кодирования                         : UTC 2015-05-09 14:47:24
Программа кодирования                    : mkvmerge v6.9.1 ('Blue Panther') 32bit built on Apr 18 2014 18:15:44
Библиотека кодирования                   : libebml v1.3.0 + libmatroska v1.4.1
Attachements                             : cover.jpg

Видео
Идентификатор                            : 1
Формат                                   : AVC
Формат/Информация                        : Advanced Video Codec
Профиль формата                          : High@L4.1
Параметр CABAC формата                   : Да
Параметр ReFrames формата                : 5 кадров
Идентификатор кодека                     : V_MPEG4/ISO/AVC
Продолжительность                        : 1 ч. 55 м.
Битрейт                                  : 19,1 Мбит/сек
Ширина                                   : 1920 пикселей
Высота                                   : 804 пикселя
Соотношение сторон                       : 2,40:1
Режим частоты кадров                     : Постоянный
Частота кадров                           : 23,976 кадра/сек
Цветовое пространство                    : YUV
Субдискретизация насыщенности            : 4:2:0
Битовая глубина                          : 8 бит
Тип развёртки                            : Прогрессивная
Бит/(Пиксели*Кадры)                      : 0.516
Размер потока                            : 15,4 Гбайт (80%)
Заголовок                                : TayTO
Библиотека кодирования                   : x264 core 142 r2431+42 c69a006 tMod [8-bit@all X86_64]
Настройки программы                      : cabac=1 / ref=5 / deblock=1:-3:-3 / analyse=0x3:0x133 / me=tesa / subme=11 / psy=1 / fade_compensate=0.00 / psy_rd=1.00:0.00 / mixed_ref=1 / me_range=48 / chroma_me=1 / trellis=2 / 8x8dct=1 / cqm=0 / deadzone=21,11 / fast_pskip=0 / chroma_qp_offset=-2 / threads=12 / lookahead_threads=2 / sliced_threads=0 / nr=0 / decimate=0 / interlaced=0 / bluray_compat=0 / constrained_intra=0 / fgo=0 / bframes=8 / b_pyramid=2 / b_adapt=2 / b_bias=0 / direct=3 / weightb=1 / open_gop=0 / weightp=2 / keyint=250 / keyint_min=23 / scenecut=40 / intra_refresh=0 / rc_lookahead=60 / rc=crf / mbtree=0 / crf=17.1500 / qcomp=0.60 / qpmin=0:0:0 / qpmax=69:69:69 / qpstep=4 / vbv_maxrate=62500 / vbv_bufsize=78125 / crf_max=0.0 / nal_hrd=none / filler=0 / ip_ratio=1.40 / pb_ratio=1.30 / aq=1:0.70 / aq-sensitivity=10.00 / aq-factor=1.00:1.00:1.00 / aq2=0 / aq3=0 / zones=46,548,crf=16.7/42869,42923,crf=16.7/158833,165877,crf=20
Язык                                     : English
Default                                  : Да
Forced                                   : Нет
Коэффициенты матрицы                     : BT.709
colour_range                             : Limited

Аудио #1
Идентификатор                            : 2
Формат                                   : DTS
Формат/Информация                        : Digital Theater Systems
Режим                                    : 16
Параметр Endianness формата              : Big
Идентификатор кодека                     : A_DTS
Продолжительность                        : 1 ч. 55 м.
Вид битрейта                             : Постоянный
Битрейт                                  : 768 Кбит/сек
Каналы                                   : 6 каналов
Расположение каналов                     : Front: L C R, Side: L R, LFE
Частота                                  : 48,0 КГц
Битовая глубина                          : 24 бит
Метод сжатия                             : С потерями
Размер потока                            : 633 Мбайт (3%)
Заголовок                                : Дубляж, Blu-ray EUR
Язык                                     : Russian
Default                                  : Да
Forced                                   : Нет

Аудио #2
Идентификатор                            : 3
Формат                                   : DTS
Формат/Информация                        : Digital Theater Systems
Режим                                    : 16
Параметр Endianness формата              : Big
Идентификатор кодека                     : A_DTS
Продолжительность                        : 1 ч. 55 м.
Вид битрейта                             : Постоянный
Битрейт                                  : 1509 Кбит/сек
Каналы                                   : 6 каналов
Расположение каналов                     : Front: L C R, Side: L R, LFE
Частота                                  : 48,0 КГц
Битовая глубина                          : 24 бит
Метод сжатия                             : С потерями
Размер потока                            : 1,22 Гбайт (6%)
Заголовок                                : Одноголосый закадровый, А.Гаврилов
Язык                                     : Russian
Default                                  : Нет
Forced                                   : Нет

Аудио #3
Идентификатор                            : 4
Формат                                   : AC-3
Формат/Информация                        : Audio Coding 3
Расширение режима                        : CM (complete main)
Параметр Endianness формата              : Big
Идентификатор кодека                     : A_AC3
Продолжительность                        : 1 ч. 55 м.
Вид битрейта                             : Постоянный
Битрейт                                  : 448 Кбит/сек
Каналы                                   : 6 каналов
Расположение каналов                     : Front: L C R, Side: L R, LFE
Частота                                  : 48,0 КГц
Битовая глубина                          : 16 бит
Метод сжатия                             : С потерями
Размер потока                            : 369 Мбайт (2%)
Заголовок                                : Дубляж, Blu-ray EUR
Язык                                     : Ukrainian
Default                                  : Нет
Forced                                   : Нет

Аудио #4
Идентификатор                            : 5
Формат                                   : DTS
Формат/Информация                        : Digital Theater Systems
Режим                                    : 16
Параметр Endianness формата              : Big
Идентификатор кодека                     : A_DTS
Продолжительность                        : 1 ч. 55 м.
Вид битрейта                             : Постоянный
Битрейт                                  : 1509 Кбит/сек
Каналы                                   : 6 каналов
Расположение каналов                     : Front: L C R, Side: L R, LFE
Частота                                  : 48,0 КГц
Битовая глубина                          : 24 бит
Метод сжатия                             : С потерями
Задержка видео                           : 11 мс.
Размер потока                            : 1,22 Гбайт (6%)
Заголовок                                : Оригинал
Язык                                     : English
Default                                  : Нет
Forced                                   : Нет

Текст #1
Идентификатор                            : 6
Формат                                   : UTF-8
Идентификатор кодека                     : S_TEXT/UTF8
Идентификатор кодека/Информация          : UTF-8 Plain Text
Заголовок                                : Full
Язык                                     : Russian
Default                                  : Нет
Forced                                   : Нет

Текст #2
Идентификатор                            : 7
Формат                                   : UTF-8
Идентификатор кодека                     : S_TEXT/UTF8
Идентификатор кодека/Информация          : UTF-8 Plain Text
Заголовок                                : Full
Язык                                     : Ukrainian
Default                                  : Нет
Forced                                   : Нет

Текст #3
Идентификатор                            : 8
Формат                                   : UTF-8
Идентификатор кодека                     : S_TEXT/UTF8
Идентификатор кодека/Информация          : UTF-8 Plain Text
Заголовок                                : Forced
Язык                                     : English
Default                                  : Нет
Forced                                   : Нет

Текст #4
Идентификатор                            : 9
Формат                                   : UTF-8
Идентификатор кодека                     : S_TEXT/UTF8
Идентификатор кодека/Информация          : UTF-8 Plain Text
Заголовок                                : Full
Язык                                     : English
Default                                  : Нет
Forced                                   : Нет

Меню
00:00:00.000                             : en:00:00:00.000
00:04:18.091                             : en:00:04:18.091
00:10:12.820                             : en:00:10:12.820
00:13:20.466                             : en:00:13:20.466
00:15:44.986                             : en:00:15:44.986
00:18:25.354                             : en:00:18:25.354
00:23:18.814                             : en:00:23:18.814
00:25:49.256                             : en:00:25:49.256
00:27:34.861                             : en:00:27:34.861
00:30:21.403                             : en:00:30:21.403
00:33:01.146                             : en:00:33:01.146
00:36:00.283                             : en:00:36:00.283
00:38:17.795                             : en:00:38:17.795
00:43:08.419                             : en:00:43:08.419
00:46:46.428                             : en:00:46:46.428
00:50:21.143                             : en:00:50:21.143
00:55:00.338                             : en:00:55:00.338
00:59:07.293                             : en:00:59:07.293
01:02:49.641                             : en:01:02:49.641
01:05:56.953                             : en:01:05:56.953
01:07:13.863                             : en:01:07:13.863
01:09:59.028                             : en:01:09:59.028
01:14:26.086                             : en:01:14:26.086
01:18:10.185                             : en:01:18:10.185
01:22:19.518                             : en:01:22:19.518
01:25:26.162                             : en:01:25:26.162
01:29:38.206                             : en:01:29:38.206
01:33:24.473                             : en:01:33:24.473
01:37:07.571                             : en:01:37:07.571
01:40:37.656                             : en:01:40:37.656
01:46:48.443                             : en:01:46:48.443
01:49:42.993                             : en:01:49:42.993

Бюджет фильма: $48 000 000
Премьера (мир): 16 декабря 2014
Премьера (РФ): 15 января 2015,
«Двадцатый Век Фокс СНГ»

Релиз на DVD: 23 апреля 2015,
«Двадцатый Век Фокс СНГ»,
...
Данный релиз идеален для пополнения домашней коллекции BDRip'ов.
В релиз вшита русская обложка размером 520х600 пикселей (аналогичные размеры у всех обложек для данной категории), что позволяет предать визуальную красоту Ваших фильмов.
Так же релиз максимально наполнен аудио дорожками в высоком качестве и субтитрами в формате srt.
Раздача обновляемая! При выходе других авторских переводов, релиз будет обновлен!
Итак, посмотрим на примере, как будет выглядеть Ваша коллекция: скриншот  
Фильмы выпускаются для кинотеатров, с пропорциями 2.35:1. И в таком же виде обычно издаются на дисках.
Монитор 16:9 имеет пропорции 1.77:1 поэтому более широкоформатное кино будет отображаться с черными полосами.
Надо это просто принять, ведь так снимают многие кинокартины.
Но некоторые фильмы могут быть и на весь экран. Особенно сериалы.
В рипах обычно обрезают черные полосы, и получают разрешение 1920х800, где приблизительно 280 пикселей занимали, повторюсь, черные полосы на экране.
Пример кадра "на весь экран": скриншот  
Пример кадра "не на весь экран": скриншот  
pb.wtf



Скачать Заложница 3 через торрент http://i68.fastpic.ru/big/2015/0409/9c/f544f234f2e4fc39d9a295ab745eeb9c.png Скачать фильм Заложница 3 через торрент бесплантно в хорошем качестве Описание: Жизнь бывшего правительственного агента Брайана Миллса рушится, когда его обвиняют в убийстве, которого он не совершал. ... 9.3 10 12
Info! Золотая раздача, скачанное не засчитывается.
Торрент: Зарегистрирован [2015-06-01 08:14] · скачан: 18 раз
Статус: √ проверено
Размер: 19.18 GB
Как cкачать? Как скачать Заложница 3 через торрент | qTorrent

% Раздел Тема Автор DL S | L
T Фильмы 2014 [DVDrip, WEB-DLRip, HDrip] [ 2.05 GB ] Заложница 3 / Taken 3 [2014 HDRip ] / Чистый звук Ворон Скачать
1 | 0
Фильмы 2014 [DVDrip, WEB-DLRip, HDrip] [ 1.46 GB ] Заложница 3 / Taken 3 [2014 BDRip-AVC] [Расширенная версия] DUB potroks Скачать
1 | 0
Фильмы (HD 720p, 1080p) (48-60 fps) [ 6.53 GB ] Заложница 3 / Taken 3 [2014 BDRip 720p Extended Cut ] 48fps от mimok mimok Скачать
1 | 0
Фильмы 2014 [DVDrip, WEB-DLRip, HDrip] [ 2.18 GB ] Заложница 3 / Taken 3 [2014 HDRip ""] coc900 Скачать
1 | 0
Фильмы 2014 [DVDrip, WEB-DLRip, HDrip] [ 2.91 GB ] Заложница 3 / Taken 3 [2014 BDRip-AVC] [Расширенная версия] DUB potroks Скачать
1 | 0
Фильмы 2014 [DVDrip, WEB-DLRip, HDrip] [ 1.46 GB ] Заложница 3 / Taken 3 [2014 BDRip-AVC] [Театральная версия] Dub potroks Скачать
1 | 0
Фильмы 2014 [DVDrip, WEB-DLRip, HDrip] [ 1.46 GB ] Заложница 3 / Taken 3 [2014 HDRip ] Серёжк@ Скачать
1 | 0


Последний раз редактировалось: Seedtank (2015-06-01 08:19), всего редактировалось 5 раз(а)

28-11-2019 20:33  

Отключить всю рекламу на сайте

10-04-2015 12:52 Заложница 3 Скачать торрент  

можно посмотреть когда делать нефиг. но фильм на троечку с минусом.pb.wtf



    Дорогой пользователь! Огромная просьба, поблагодарите релизера, оцените раздачу и оставьте свои комментарий, если Вы скачали Заложница 3 через торрент бесплатно! Внесите свою лепту в развитие PiratBit!
    Комментировать посты могут только пользователи прошедшие не сложную регистрацию
    Показать сообщения:    

    Заложница 3 через торрент
    Скачать бесплатно Заложница 3
    Заложница 3 скачать торрент
    Заложница 3 смотреть онлайн
    Cкачать фильм Заложница 3 бесплатно
    Заложница 3 скачать торрент в хорошем качестве
    Заложница 3 смотреть онлайн бесплатно в хорошем качестве


    Вы не можете начинать темы
    Вы не можете отвечать на сообщения
    Вы не можете редактировать свои сообщения
    Вы не можете удалять свои сообщения
    Вы не можете голосовать в опросах
    Вы не можете прикреплять файлы к сообщениям
    Вы можете скачивать файлы