Ссылка на приватное зеркало нашего сайта всего за 1$. Внимание количество ограничено!!!

2 сезон

iTunes

1 сезон

1

iTunes

iTunes

iTunes

1 сезон

RePack

30

ИГРА 18+

pack

ВАЖНО

!!Акция!!

Alien_RageХит недели

RePack

MK11
pack

Забери бонус

RePack

jed

!!Акция!!

Alien_Rage

RePack

fifa19

RePack

Assassins Creed: Odyssey

RePack

NEED FOR SPEED™ PAYBACK

4 сезон

9 сезон

Бесстыжие 9 сезон

Все сериалы

все сериалы на PB.wtf

RePack

FAR CRY 5
  

Маугли (Роман Давыдов) [1973 г., Мультфильм, приключения, семейный, DVDRip] pb.wtf

Маугли через торрент pb.wtf

Размер: 1.14 GB | Добавлен: 5 лет 6 мес. назад | Торрент скачан:224 раза
Скачать  

09-04-2015 17:43 Маугли Скачать торрент  

МауглиГод выпуска: 1973
Страна: СССР
Жанр: Мультфильм, приключения, семейный

Режиссёр: Роман Давыдов
В ролях: Степан Бубнов, Людмила Касаткина, Юрий Хржановский, Лев Любецкий, Сергей Мартинсон, Александр Назаров, Люсьена Овчинникова, Анатолий Папанов, Юрий Пузырев, Владимир Ушаков

Длительность: 01:35:37
Перевод: Не требуется
Субтитры: Нет

Описание: Одноимённая экранизация повести Киплинга о мальчике, воспитанном волчьей стаей, ставшим своим в джунглях, победившим своего врага — тигра Шерхана, совершившем ещё многие подвиги, и, в конце концов, ушедшем к людям.



Список серий:
01. Ракша
02. Похищение
03. Последняя охота Акелы
04. Битва
05. Возвращение к людям

Качество: DVDRip
Формат: AVI
Видео кодек: XviD
Аудио кодек: AC-3
Видео: 1499 kbps, 720x544 (4:3), 23,976 fps
Аудио: 192 kbps, 2 ch, 48,0 khz

Рип от: Egorijj.Alien
General
Complete name : D:\Видео\Рип\Maugli.avi
Format : AVI
Format/Info : Audio Video Interleave
File size : 1.14 GiB
Duration : 1h 35mn
Overall bit rate : 1 701 Kbps
Writing application : VirtualDubMod 1.5.10.3 | www.virtualdub-fr.org || (build 2550/release)
Writing library : VirtualDubMod build 2550/release

Video
ID : 0
Format : MPEG-4 Visual
Format profile : Advanced Simple@L5
Format settings, BVOP : 2
Format settings, QPel : No
Format settings, GMC : No warppoints
Format settings, Matrix : Default (H.263)
Codec ID : XVID
Codec ID/Hint : XviD
Duration : 1h 35mn
Bit rate : 1 499 Kbps
Width : 720 pixels
Height : 544 pixels
Display aspect ratio : 4:3
Frame rate : 23.976 fps
Color space : YUV
Chroma subsampling : 4:2:0
Bit depth : 8 bits
Scan type : Progressive
Compression mode : Lossy
Bits/(Pixel*Frame) : 0.160
Stream size : 1.00 GiB (88%)
Writing library : XviD 1.2.1 (UTC 2008-12-04)

Audio
ID : 1
Format : AC-3
Format/Info : Audio Coding 3
Mode extension : CM (complete main)
Format settings, Endianness : Big
Codec ID : 2000
Duration : 1h 35mn
Bit rate mode : Constant
Bit rate : 192 Kbps
Channel(s) : 2 channels
Channel positions : Front: L R
Sampling rate : 48.0 KHz
Bit depth : 16 bits
Compression mode : Lossy
Stream size : 131 MiB (11%)
Alignment : Split accross interleaves
Interleave, duration : 42 ms (1.00 video frame)
Interleave, preload duration : 500 ms
pb.wtf



Скачать Маугли через торрент http://i58.fastpic.ru/big/2015/0409/2b/434b687e0750caecbda6a3add8dea92b.gif Скачать фильм Маугли через торрент бесплантно в хорошем качестве Описание: Одноимённая экранизация повести Киплинга о мальчике, воспитанном волчьей стаей, ставшим своим в джунглях, победившим своего врага ... 10 10 15
Торрент: Зарегистрирован [2015-04-09 17:43] · скачан: 224 раз
Статус: √ проверено
Размер: 1.14 GB
Как cкачать? Как скачать Маугли через торрент | qTorrent

% Раздел Тема Автор DL S | L
Наши Мультфильмы (HD, WEB-DL 720p, 1080p) [ 2.3 GB ] Маугли [1967 рисованный детский экранизация BDRip 1080p-HEVC 10bit Русский] ADVOKAT69 Скачать
1 | 0
Иностранные мультфильмы [ 1.42 GB ] Маугли дикой планеты / Terra Willy: Planète inconnue / Astro Kid [2019 мультфильм BDRip] - Twi7ter Скачать
13 | 0
Зарубежные Мультфильмы (BDRip 1080p, 720p, Blu-ray, BD-Remux) [ 6.08 GB ] Маугли дикой планеты / Terra Willy: Planète inconnue / Astro Kid [2019 мультфильм BDRip 1080p] bober100 Скачать
2 | 0
Иностранные мультфильмы [ 1.42 GB ] Маугли дикой планеты / Terra Willy: Planète inconnue / Astro Kid [2019 мультфильм BDRip] bober100 Скачать
1 | 0
Иностранные мультфильмы [ 1.71 GB ] Маугли дикой планеты / Terra Willy: Planète inconnue [2019 мультфильм BDRip-AVC] - ExKinoRay Enigma2010 Скачать
21 | 0
Зарубежные Мультфильмы (WEB-DL 720p, 1080p) [ 2.94 GB ] Маугли дикой планеты / Terra Willy: Planète inconnue [2019 мультфильм WEB-DL 1080p] bober100 Скачать
3 | 0
Зарубежные Мультфильмы (BDRip 1080p, 720p, Blu-ray, BD-Remux) [ 15.51 GB ] Маугли дикой планеты / Terra Willy: Planète inconnue / Astro Kid [2019 мультфильм BD Remux 1080p] bober100 Скачать
3 | 0

28-11-2019 20:33  

Отключить всю рекламу на сайте

    Дорогой пользователь! Огромная просьба, поблагодарите релизера, оцените раздачу и оставьте свои комментарий, если Вы скачали Маугли через торрент бесплатно! Внесите свою лепту в развитие PiratBit!
    Комментировать посты могут только пользователи прошедшие не сложную регистрацию
    Показать сообщения:    

    Маугли через торрент
    Скачать бесплатно Маугли
    Маугли скачать торрент
    Маугли смотреть онлайн
    Cкачать фильм Маугли бесплатно
    Маугли скачать торрент в хорошем качестве
    Маугли смотреть онлайн бесплатно в хорошем качестве


    Вы не можете начинать темы
    Вы не можете отвечать на сообщения
    Вы не можете редактировать свои сообщения
    Вы не можете удалять свои сообщения
    Вы не можете голосовать в опросах
    Вы не можете прикреплять файлы к сообщениям
    Вы можете скачивать файлы