Ссылка на приватное зеркало нашего сайта всего за 1$. Внимание количество ограничено!!!

2 сезон

iTunes

1 сезон

1

iTunes

iTunes

iTunes

1 сезон

RePack

30

ИГРА 18+

pack

ВАЖНО

!!Акция!!

Alien_RageХит недели

RePack

MK11
pack

Забери бонус

RePack

jed

!!Акция!!

Alien_Rage

RePack

fifa19

RePack

Assassins Creed: Odyssey

RePack

NEED FOR SPEED™ PAYBACK

4 сезон

9 сезон

Бесстыжие 9 сезон

Все сериалы

все сериалы на PB.wtf

RePack

FAR CRY 5
  

Феи: Легенда о чудовище / Legend of the NeverBeast (Стив Лотер) [2014 г., мультфильм, фэнтези, приключения, семейный, HDRip, Дубляж "Лицензия"] pb.wtf

Феи: Легенда о чудовище через торрент pb.wtf

Размер: 1.45 GB | Добавлен: 5 лет 6 мес. назад | Торрент скачан:615 раз
Скачать  

10-04-2015 18:13 Феи: Легенда о чудовище Скачать торрент  

Феи: Легенда о чудовище / Legend of the NeverBeast
Год выпуска: 2014
Страна: США / DisneyToon Studios, Prana Studios
Жанр: мультфильм, фэнтези, приключения, семейный
Продолжительность: 01:16:14
Перевод: Дубляж (Лицензия)

Режиссер: Стив Лотер

IMDB 7.30 (2093)


В ролях: Мэй Уитман, Джиннифер Гудвин, Розарио Доусон, Люси Лью, Томас Леннон, Рэйвен, Памела Адлон, Меган Хилти, Мелани Браун, Youlika Skafida, Анна Бегунова, Екатерина Семенова, Ирина Слуцкая, Ольга Арнтгольц, Елена Великанова

Описание: Анимационная сказка расскажет удивительную историю о веселой и талантливой фее Фауне, которая убеждена в том, что о книге нельзя судить по ее обложке, впрочем, как и о животном по его клыкам, поэтому она дружит с таинственным существом громадных размеров из Нетландии по прозвищу Чудовище. В это время группа волшебных фей разведки не настолько уверены в этом страшном звере и намереваются захватить его прежде, чем он уничтожит их дома. Они хотят отправиться на поиски Чудовища. Фауна, чтобы спасти своего нового друга, остается лишь доказать всем, что он — существо доброе и не собирается вредить другим...

Качество: HDRip
Формат: AVI
Видео кодек: XviD
Аудио кодек: AC3
Видео: 720x400 (1.80:1), 23.976 fps, XviD build 50 ~2272 kbps avg, 0.33 bit/pixel
Аудио: 48 kHz, AC3 Dolby Digital, 3/2 (L,C,R,l,r) + LFE ch, ~448 kbps
скриншот   скриншот   скриншот   скриншот   скриншот   скриншот   скриншот   скриншот   скриншот   скриншот  

Общее
Полное имя : F:\кино\Феи.Легенда о чудовище.2014.HDRip.avi
Формат : AVI
Формат/Информация : Audio Video Interleave
Размер файла : 1,45 Гбайт
Продолжительность : 1 ч. 16 м.
Общий поток : 2730 Кбит/сек
Программа кодирования : VirtualDubMod 1.5.10.3 | www.virtualdub-fr.org || (build 2550/release)
Библиотека кодирования : VirtualDubMod build 2550/release

Видео
Идентификатор : 0
Формат : MPEG-4 Visual
Профиль формата : Advanced Simple@L5
Параметр BVOP формата : 2
Параметр QPel формата : Нет
Параметр GMC формата : Без точки перехода
Параметр матрицы формата : Default (H.263)
Идентификатор кодека : XVID
Идентификатор кодека/Подсказка : XviD
Продолжительность : 1 ч. 16 м.
Битрейт : 2272 Кбит/сек
Ширина : 720 пикселей
Высота : 400 пикселей
Соотношение сторон : 16:9
Частота кадров : 23,976 кадра/сек
Цветовое пространство : YUV
Субдискретизация насыщенности : 4:2:0
Битовая глубина : 8 бит
Тип развёртки : Прогрессивная
Метод сжатия : С потерями
Бит/(Пиксели*Кадры) : 0.329
Размер потока : 1,21 Гбайт (83%)
Библиотека кодирования : XviD 1.2.1 (UTC 2008-12-04)

Аудио
Идентификатор : 1
Формат : AC-3
Формат/Информация : Audio Coding 3
Расширение режима : CM (complete main)
Параметр Endianness формата : Big
Идентификатор кодека : 2000
Продолжительность : 1 ч. 16 м.
Вид битрейта : Постоянный
Битрейт : 448 Кбит/сек
Каналы : 6 каналов
Расположение каналов : Front: L C R, Side: L R, LFE
Частота : 48,0 КГц
Битовая глубина : 16 бит
Метод сжатия : С потерями
Размер потока : 244 Мбайт (16%)
Выравнивание : Разделение по промежуткам
Продолжительность промежутка : 42 мс. (1,00 видеокадр)
Время предзагрузки промежутка : 500 мс.

pb.wtf



Скачать Феи: Легенда о чудовище через торрент http://pic1.kartinco.top/images/10/hs2fe.jpg Скачать фильм Феи: Легенда о чудовище через торрент бесплантно в хорошем качестве Описание: Анимационная сказка расскажет удивительную историю о веселой и талантливой фее Фауне, которая убеждена в том, что о книге нельзя ... 9.9 10 19
Торрент: Зарегистрирован [2015-04-10 18:13] · скачан: 615 раз
Статус: √ проверено
Размер: 1.45 GB
Как cкачать? Как скачать Феи: Легенда о чудовище через торрент | qTorrent

% Раздел Тема Автор DL S | L
Мультфильмы (48-60 fps) [ 3.16 GB ] Феи: Легенда о чудовище / Legend of the NeverBeast [2014 мультфильм BDRip 720p ] slaventi-69 Скачать
1 | 1
Иностранные мультфильмы [ 2.18 GB ] Феи: Легенда о чудовище / Legend of the NeverBeast [2014 Мультфильм BDRip-AVC] DUB potroks Скачать
1 | 0
Зарубежные Мультфильмы (BDRip 1080p, 720p, Blu-ray, BD-Remux) [ 20.48 GB ] Феи: Легенда о чудовище / Legend of the NeverBeast [2014 мультфильм BD Remux] DUB Ворон Скачать
1 | 0
Иностранные мультфильмы [ 1.73 GB ] Феи: Легенда о чудовище / Legend of the NeverBeast [2014 мультфильм BDRip AVC / Russia] Ворон Скачать
1 | 0
Зарубежные Мультфильмы (BDRip 1080p, 720p, Blu-ray, BD-Remux) [ 4.18 GB ] Феи: Легенда о чудовище / Legend of the NeverBeast [2014 мультфильм BDRip 720p / Russia] Ворон Скачать
1 | 0
Зарубежные Мультфильмы (BDRip 1080p, 720p, Blu-ray, BD-Remux) [ 9.55 GB ] Феи: Легенда о чудовище / Legend of the NeverBeast [2014 мультфильм BDRip 1080p / Russia] Ворон Скачать
1 | 0
Иностранные мультфильмы [ 1.37 GB ] Феи: Легенда о чудовище / Legend of the NeverBeast [2014 мультфильм HDRip - / ] _KaisiK_ Скачать
1 | 0

28-11-2019 20:33  

Отключить всю рекламу на сайте

    Дорогой пользователь! Огромная просьба, поблагодарите релизера, оцените раздачу и оставьте свои комментарий, если Вы скачали Феи: Легенда о чудовище через торрент бесплатно! Внесите свою лепту в развитие PiratBit!
    Комментировать посты могут только пользователи прошедшие не сложную регистрацию
    Показать сообщения:    

    Феи: Легенда о чудовище через торрент
    Скачать бесплатно Феи: Легенда о чудовище
    Феи: Легенда о чудовище скачать торрент
    Феи: Легенда о чудовище смотреть онлайн
    Cкачать фильм Феи: Легенда о чудовище бесплатно
    Феи: Легенда о чудовище скачать торрент в хорошем качестве
    Феи: Легенда о чудовище смотреть онлайн бесплатно в хорошем качестве


    Вы не можете начинать темы
    Вы не можете отвечать на сообщения
    Вы не можете редактировать свои сообщения
    Вы не можете удалять свои сообщения
    Вы не можете голосовать в опросах
    Вы не можете прикреплять файлы к сообщениям
    Вы можете скачивать файлы