Мега распродажа FORZA HORIZON 4 ULTIMATE+ВСЕ DLC+ОНЛАЙН всего за 499р. 349 руб. (супер цена). Внимание количество ограничено!!!

Лицензия

30

iTunes

мы

iTunes

1

1 сезон

Чернобыль

1 сезон

Ральф против интернета

MVO

Покемон. Детектив Пикачу

8 сезон

Игра престолов

iTunes

1+1

ИГРА 18+

pack

ВАЖНО

!!Акция!!

Alien_RageХит недели

RePack

Resident Evil 21
pack

RePack

Metro:Exodus

!!Акция!!

Alien_Rage

RePack

fifa19

RePack

Assassins Creed: Odyssey

RePack

NEED FOR SPEED™ PAYBACK

3 сезон

9 сезон

Бесстыжие 9 сезон

Все сериалы

все сериалы на PB.wtf

RePack

FAR CRY 5
Ребята, катастрофически не хватает 2730р. для оплаты серверов за МАЙ (всвязи с блокировками трафик упал в 3 раза), 1-2р., выручайте.
  

Бруклинские полицейские / Brooklyn's Finest (Антуан Фукуа / Antoine Fuqua) [2009, триллер, драма, криминал, BDRip-AVC, лицензия], MVO pb.wtf

Бруклинские полицейские через торрент pb.wtf

Размер: 3.63 GB | Добавлен: 4 года 2 мес. назад | Торрент скачан:93 раза
Скачать  

10-04-2015 19:12 Бруклинские полицейские Скачать торрент  

Бруклинские полицейские / Brooklyn's Finest
«Это - война. Это - Бруклин»


Год выпуска: 2009
Страна: США
Жанр: триллер, драма, криминал
Продолжительность: 02:12:38
Перевод: Профессиональный (многоголосый, закадровый), CP-Digital
Субтитры: русские (Full), английские (Full)
Режиссер: Антуан Фукуа
В ролях: Ричард Гир , Дон Чидл , Итан Хоук , Уэсли Снайпс , Уилл Пэттон , Лили Тейлор , Майкл Кеннет Уильямс , Брайан Ф. О’Бирн , Шеннон Кэйн , Эллен Баркин , Винсент Д’Онофрио , Уасс М. Стивенс
Описание:
Фильм повествует о трех никак между собой не связанных бруклинских полицейских, которые оказываются в одной судьбоносной сюжетной точке, несмотря на совершенно разные карьеры: один - работает под прикрытием в среде наркомафии, второй - коррумпирован по самое не балуйся, третий - всегда играл по правилам и теперь хочет только спокойно дожить до почетной отставки.

R - Лицам до 17 лет обязательно присутствие взрослого
Качество: BDRip-AVC (исходник Blu-ray)
Контейнер (Расширение): MKV
Видео кодек: AVC
Аудио кодек: AC3
Видео: 960x400 (2.40:1), 1962 Кбит/сек, 23,976 кадр/сек, 0,213 Бит/[Пиксели*Кадры]
Аудио: русский / AC3 / 5.1 / 48 kHz / 384 kbps / 16 bit |Профессиональный (многоголосый, закадровый), CP-Digital|
Навигация по главам(Чаптеры): есть

Дополнительные звуковые дорожки отдельно:
Аудио: русский / AC3 / 5.1 / 48 kHz / 448 kbps / 16 bit |Авторский, Дольский|
Аудио: русский / AC3 / 5.1 / 48 kHz / 448 kbps / 16 bit |Авторский, Немахов|
Аудио: русский / AC3 / 2.0 / 48 kHz / 224 kbps / 16 bit |Дублированный, РЕН ТВ|
Аудио: английский / AC3 / 5.1 / 48 kHz / 448 kbps / 16 bitАвтор рипа: Сообщество:
  • Дензел Вашингтон отклонил роль Танго.
  • Код:

    Format                                   : Matroska
    Format version                           : Version 2
    File size                                : 2.17 GiB
    Duration                                 : 2h 12mn
    Overall bit rate                         : 2 347 Kbps
    Movie name                               : Bruklinskie policejskie.(2009).BDRip-AVC.[denis100]
    Encoded date                             : UTC 2015-04-10 17:40:40
    Writing application                      : mkvmerge v5.8.0 ('No Sleep / Pillow') built on Sep  2 2012 15:37:04
    Writing library                          : libebml v1.2.3 + libmatroska v1.3.0

    Video
    ID                                       : 1
    Format                                   : AVC
    Format/Info                              : Advanced Video Codec
    Format profile                           : High@L4.1
    Format settings, CABAC                   : Yes
    Format settings, ReFrames                : 11 frames
    Codec ID                                 : V_MPEG4/ISO/AVC
    Duration                                 : 2h 12mn
    Bit rate                                 : 1 962 Kbps
    Width                                    : 960 pixels
    Height                                   : 400 pixels
    Display aspect ratio                     : 2.40:1
    Frame rate                               : 23.976 fps
    Color space                              : YUV
    Chroma subsampling                       : 4:2:0
    Bit depth                                : 8 bits
    Scan type                                : Progressive
    Bits/(Pixel*Frame)                       : 0.213
    Stream size                              : 1.78 GiB (82%)
    Title                                    : Bruklinskie policejskie.(2009).BDRip-AVC.[denis100]
    Writing library                          : x264 core 146 r2538 121396c
    Encoding settings                        : cabac=1 / ref=11 / deblock=1:-3:-3 / analyse=0x3:0x133 / me=umh / subme=11 / psy=1 / psy_rd=1.00:0.00 / mixed_ref=1 / me_range=32 / chroma_me=1 / trellis=2 / 8x8dct=1 / cqm=0 / deadzone=21,11 / fast_pskip=0 / chroma_qp_offset=-2 / threads=6 / lookahead_threads=1 / sliced_threads=0 / nr=0 / decimate=1 / interlaced=0 / bluray_compat=0 / constrained_intra=0 / bframes=8 / b_pyramid=2 / b_adapt=2 / b_bias=0 / direct=3 / weightb=1 / open_gop=0 / weightp=2 / keyint=240 / keyint_min=23 / scenecut=40 / intra_refresh=0 / rc=2pass / mbtree=0 / bitrate=1962 / ratetol=1.0 / qcomp=0.60 / qpmin=0 / qpmax=69 / qpstep=4 / cplxblur=20.0 / qblur=0.5 / ip_ratio=1.40 / pb_ratio=1.30 / aq=1:1.00
    Language                                 : English
    Default                                  : Yes
    Forced                                   : No

    Audio
    ID                                       : 2
    Format                                   : AC-3
    Format/Info                              : Audio Coding 3
    Mode extension                           : CM (complete main)
    Codec ID                                 : A_AC3
    Duration                                 : 2h 12mn
    Bit rate mode                            : Constant
    Bit rate                                 : 384 Kbps
    Channel(s)                               : 6 channels
    Channel positions                        : Front: L C R, Side: L R, LFE
    Sampling rate                            : 48.0 KHz
    Bit depth                                : 16 bits
    Compression mode                         : Lossy
    Stream size                              : 364 MiB (16%)
    Title                                    : Профессиональный (двухголосый, закадровый) R5
    Language                                 : Russian
    Default                                  : Yes
    Forced                                   : No

    Text #1
    ID                                       : 3
    Format                                   : UTF-8
    Codec ID                                 : S_TEXT/UTF8
    Codec ID/Info                            : UTF-8 Plain Text
    Title                                    : Full
    Language                                 : Russian
    Default                                  : No
    Forced                                   : No

    Text #2
    ID                                       : 4
    Format                                   : UTF-8
    Codec ID                                 : S_TEXT/UTF8
    Codec ID/Info                            : UTF-8 Plain Text
    Title                                    : Full
    Language                                 : English
    Default                                  : No
    Forced                                   : No

    Menu
    00:00:00.000                             : en:00:00:00.000
    00:04:46.244                             : en:00:04:46.244
    00:11:46.870                             : en:00:11:46.870
    00:19:18.115                             : en:00:19:18.115
    00:26:19.826                             : en:00:26:19.826
    00:31:52.951                             : en:00:31:52.951
    00:39:49.804                             : en:00:39:49.804
    00:44:12.523                             : en:00:44:12.523
    00:55:06.344                             : en:00:55:06.344
    01:10:17.587                             : en:01:10:17.587
    01:17:54.417                             : en:01:17:54.417
    01:24:05.832                             : en:01:24:05.832
    01:31:49.462                             : en:01:31:49.462
    01:44:44.319                             : en:01:44:44.319
    02:00:18.377                             : en:02:00:18.377
    02:06:04.180                             : en:02:06:04.180

    x264 [info]: frame I:1224 Avg QP:13.15 size: 59664
    x264 [info]: frame P:41990 Avg QP:16.72 size: 20208
    x264 [info]: frame B:147610 Avg QP:18.65 size: 6977
    pb.wtf



    Скачать Бруклинские полицейские через торрент http://i58.fastpic.ru/big/2015/0410/23/e23e98b9e37466dc10492a6700cbe423.png Скачать фильм Бруклинские полицейские через торрент бесплантно в хорошем качестве Описание:Фильм повествует о трех никак между собой не связанных бруклинских полицейских, которые оказываются в одной судьбоносной сюжетной ... 8.5 10 6
    Info! Золотая раздача, скачанное не засчитывается.
    Торрент: Зарегистрирован [2015-04-10 19:12] · скачан: 93 раз
    Статус: √ проверено
    Размер: 3.63 GB
    Как cкачать? Как скачать Бруклинские полицейские через торрент | qTorrent


    >> Регистрируемся здесь <<






    Отзывы и комментарии о схеме читаем и пишем здесь: ---> Отзывы и комментарии о схеме

    Новые благодарочки в телеграм довольных пользователей:
    скриншот   скриншот   скриншот   скриншот   скриншот
      Дорогой пользователь! Огромная просьба, поблагодарите релизера, оцените раздачу и оставьте свои комментарий, если Вы скачали Бруклинские полицейские через торрент бесплатно! Внесите свою лепту в развитие PiratBit!
      Комментировать посты могут только пользователи прошедшие не сложную регистрацию
      Показать сообщения:    

      Бруклинские полицейские через торрент
      Скачать бесплатно Бруклинские полицейские
      Бруклинские полицейские скачать торрент
      Бруклинские полицейские смотреть онлайн
      Cкачать фильм Бруклинские полицейские бесплатно
      Бруклинские полицейские скачать торрент в хорошем качестве
      Бруклинские полицейские смотреть онлайн бесплатно в хорошем качестве


      Вы не можете начинать темы
      Вы не можете отвечать на сообщения
      Вы не можете редактировать свои сообщения
      Вы не можете удалять свои сообщения
      Вы не можете голосовать в опросах
      Вы не можете прикреплять файлы к сообщениям
      Вы можете скачивать файлы