Ссылка на приватное зеркало нашего сайта всего за 1$. Внимание количество ограничено!!!

2 сезон

iTunes

1 сезон

1

iTunes

iTunes

iTunes

1 сезон

RePack

30

ИГРА 18+

pack

ВАЖНО

!!Акция!!

Alien_RageХит недели

RePack

MK11
pack

Забери бонус

RePack

jed

!!Акция!!

Alien_Rage

RePack

fifa19

RePack

Assassins Creed: Odyssey

RePack

NEED FOR SPEED™ PAYBACK

4 сезон

9 сезон

Бесстыжие 9 сезон

Все сериалы

все сериалы на PB.wtf

RePack

FAR CRY 5
  

Феи: Легенда о чудовище / Legend of the NeverBeast (Стив Лотер / Steve Loter) [2014, Мультфильм, фэнтези, приключения, семейный, BDRip-AVC] DUB Лицензия pb.wtf

Феи: Легенда о чудовище через торрент pb.wtf

Размер: 2.18 GB | Добавлен: 5 лет 6 мес. назад | Торрент скачан:697 раз
Скачать  

11-04-2015 09:14 Феи: Легенда о чудовище Скачать торрент  

Феи: Легенда о чудовище / Legend of the NeverBeast
Год выпуска: 2014
Страна: США / DisneyToon Studios, Prana Studios
Жанр: Мультфильм, фэнтези, приключения, семейный
Продолжительность: 01:16:14
Перевод: Профессиональный (дублированный) [BD EUR]
Субтитры: Русские, английские (Full + SDH + SDH-Colored)

Режиссер: Стив Лотер / Steve Loter

Роли озвучивали: Мэй Уитман, Джиннифер Гудвин, Розарио Доусон, Люси Лью, Томас Леннон, Рэйвен, Памела Адлон, Меган Хилти, Мелани Браун, Юлика Скафида, Мортен Линдеманн Ольсен

Описание: Анимационная сказка расскажет удивительную историю о веселой и талантливой фее Фауне, которая убеждена в том, что о книге нельзя судить по ее обложке, впрочем, как и о животном по его клыкам, поэтому она дружит с таинственным существом громадных размеров из Нетландии по прозвищу Чудовище.
В это время группа волшебных фей разведки не настолько уверены в этом страшном звере и намереваются захватить его прежде, чем он уничтожит их дома. Они хотят отправиться на поиски Чудовища. Фауна, чтобы спасти своего нового друга, остается лишь доказать всем, что он — существо доброе и не собирается вредить другим…



Качество: BDRip-AVC
Формат: MKV
Видео кодек: H.264
Аудио кодек: AC3
Видео: 1152x648 (16:9), 23.976 fps, 3198 Кbps, 0.179 bit/pixel
Аудио#1: 48 kHz, AC3 Dolby Digital, 3/2 (L,C,R,l,r) + LFE ch, 448.00 kbps | RUS
Аудио#2: 48 kHz, AC3 Dolby Digital, 3/2 (L,C,R,l,r) + LFE ch, 448.00 kbps | ENG

Релиз группы:
Автор рипа: potroks

Общее
Уникальный идентификатор : 205764074333775931489216595546655680393 (0x9ACCB81F0DF37EB0855D7E3E973BE789)
Полное имя : Feyi.Legendy.o.Chudovische.2014.DUAL.BDRip.x264.-HELLYWOOD.mkv
Формат : Matroska
Версия формата : Version 4 / Version 2
Размер файла : 2,18 Гбайт
Продолжительность : 1 ч. 16 м.
Общий поток : 4097 Кбит/сек
Название фильма : Legend of the NeverBeast (2014) - HELLYWOOD
Дата кодирования : UTC 2010-02-22 21:41:31
Программа кодирования : mkvmerge v5.8.0 ('No Sleep / Pillow') built on Sep 30 2012 10:57:14
Библиотека кодирования : libebml v1.3.0 + libmatroska v1.4.0

Видео
Идентификатор : 1
Формат : AVC
Формат/Информация : Advanced Video Codec
Профиль формата : High@L4.1
Параметр CABAC формата : Да
Параметр ReFrames формата : 10 кадров
Идентификатор кодека : V_MPEG4/ISO/AVC
Продолжительность : 1 ч. 16 м.
Битрейт : 3198 Кбит/сек
Ширина : 1152 пикселя
Высота : 648 пикселей
Соотношение сторон : 16:9
Режим частоты кадров : Постоянный
Частота кадров : 23,976 кадра/сек
Цветовое пространство : YUV
Субдискретизация насыщенности : 4:2:0
Битовая глубина : 8 бит
Тип развёртки : Прогрессивная
Бит/(Пиксели*Кадры) : 0.179
Размер потока : 1,66 Гбайт (76%)
Заголовок : potroks
Библиотека кодирования : x264 core 130 r2273 b3065e6
Настройки программы : cabac=1 / ref=10 / deblock=1:0:0 / analyse=0x3:0x133 / me=umh / subme=11 / psy=1 / psy_rd=1.03:0.09 / mixed_ref=1 / me_range=48 / chroma_me=1 / trellis=2 / 8x8dct=1 / cqm=0 / deadzone=21,11 / fast_pskip=0 / chroma_qp_offset=-3 / threads=12 / lookahead_threads=2 / sliced_threads=0 / nr=0 / decimate=0 / interlaced=0 / bluray_compat=0 / constrained_intra=0 / bframes=12 / b_pyramid=2 / b_adapt=2 / b_bias=0 / direct=3 / weightb=1 / open_gop=0 / weightp=2 / keyint=250 / keyint_min=25 / scenecut=40 / intra_refresh=0 / rc_lookahead=60 / rc=2pass / mbtree=0 / bitrate=3198 / ratetol=1.0 / qcomp=0.70 / qpmin=0 / qpmax=69 / qpstep=4 / cplxblur=20.0 / qblur=0.5 / vbv_maxrate=50000 / vbv_bufsize=62500 / nal_hrd=none / ip_ratio=1.30 / pb_ratio=1.25 / aq=1:0.70
Язык : English
Default : Да
Forced : Нет

Аудио #1
Идентификатор : 2
Формат : AC-3
Формат/Информация : Audio Coding 3
Расширение режима : CM (complete main)
Параметр Endianness формата : Big
Идентификатор кодека : A_AC3
Продолжительность : 1 ч. 16 м.
Вид битрейта : Постоянный
Битрейт : 448 Кбит/сек
Каналы : 6 каналов
Расположение каналов : Front: L C R, Side: L R, LFE
Частота : 48,0 КГц
Битовая глубина : 16 бит
Метод сжатия : С потерями
Размер потока : 244 Мбайт (11%)
Заголовок : Dub | DD 5.1 @ 448 kbps - Blu-Ray EUR
Язык : Russian
Default : Да
Forced : Нет

Аудио #2
Идентификатор : 3
Формат : AC-3
Формат/Информация : Audio Coding 3
Расширение режима : CM (complete main)
Параметр Endianness формата : Big
Идентификатор кодека : A_AC3
Продолжительность : 1 ч. 16 м.
Вид битрейта : Постоянный
Битрейт : 448 Кбит/сек
Каналы : 6 каналов
Расположение каналов : Front: L C R, Side: L R, LFE
Частота : 48,0 КГц
Битовая глубина : 16 бит
Метод сжатия : С потерями
Размер потока : 244 Мбайт (11%)
Заголовок : Original | DD 5.1 @ 448 kbps
Язык : English
Default : Нет
Forced : Нет

Текст #1
Идентификатор : 4
Формат : UTF-8
Идентификатор кодека : S_TEXT/UTF8
Идентификатор кодека/Информация : UTF-8 Plain Text
Язык : Russian
Default : Нет
Forced : Нет

Текст #2
Идентификатор : 5
Формат : UTF-8
Идентификатор кодека : S_TEXT/UTF8
Идентификатор кодека/Информация : UTF-8 Plain Text
Заголовок : Full
Язык : English
Default : Нет
Forced : Нет

Текст #3
Идентификатор : 6
Формат : UTF-8
Идентификатор кодека : S_TEXT/UTF8
Идентификатор кодека/Информация : UTF-8 Plain Text
Заголовок : SDH
Язык : English
Default : Нет
Forced : Нет

Текст #4
Идентификатор : 7
Формат : UTF-8
Идентификатор кодека : S_TEXT/UTF8
Идентификатор кодека/Информация : UTF-8 Plain Text
Заголовок : SDH-Colored
Язык : English
Default : Нет
Forced : Нет

Меню
00:00:00.000 : en:1. Awakening The Beast
00:03:08.188 : en:2. Baby Hawk
00:10:55.071 : en:3. A Great Discovery
00:16:45.087 : en:4. An Understanding
00:20:26.684 : en:5. Making Friends
00:24:20.501 : en:6. Tower Building
00:30:58.732 : en:7. Introducing Gruff
00:34:42.038 : en:8. Fawn's Expertise
00:38:09.245 : en:9. The Beast's Safety
00:41:13.012 : en:10. The Search Begins
00:44:39.468 : en:11. Transformation
00:49:54.992 : en:12. Learning The Truth
00:53:05.766 : en:13. Fighting The Storm
00:57:07.883 : en:14. Saving Pixie Hollow
01:02:54.688 : en:15. Going Home
01:07:54.612 : en:16. End Credits

pb.wtf



Скачать Феи: Легенда о чудовище через торрент http://pic.kartinco.top/images/11/2v3h9.jpg Скачать фильм Феи: Легенда о чудовище через торрент бесплантно в хорошем качестве Описание: Анимационная сказка расскажет удивительную историю о веселой и талантливой фее Фауне, которая убеждена в том, что о книге нельзя ... 9.8 10 13
Торрент: Зарегистрирован [2015-04-11 09:14] · скачан: 697 раз
Статус: √ проверено
Размер: 2.18 GB
Как cкачать? Как скачать Феи: Легенда о чудовище через торрент | qTorrent

% Раздел Тема Автор DL S | L
Зарубежные Мультфильмы (BDRip 1080p, 720p, Blu-ray, BD-Remux) [ 20.48 GB ] Феи: Легенда о чудовище / Legend of the NeverBeast [2014 мультфильм BD Remux] DUB Ворон Скачать
1 | 0

28-11-2019 20:33  

Отключить всю рекламу на сайте

    Дорогой пользователь! Огромная просьба, поблагодарите релизера, оцените раздачу и оставьте свои комментарий, если Вы скачали Феи: Легенда о чудовище через торрент бесплатно! Внесите свою лепту в развитие PiratBit!
    Комментировать посты могут только пользователи прошедшие не сложную регистрацию
    Показать сообщения:    

    Феи: Легенда о чудовище через торрент
    Скачать бесплатно Феи: Легенда о чудовище
    Феи: Легенда о чудовище скачать торрент
    Феи: Легенда о чудовище смотреть онлайн
    Cкачать фильм Феи: Легенда о чудовище бесплатно
    Феи: Легенда о чудовище скачать торрент в хорошем качестве
    Феи: Легенда о чудовище смотреть онлайн бесплатно в хорошем качестве


    Вы не можете начинать темы
    Вы не можете отвечать на сообщения
    Вы не можете редактировать свои сообщения
    Вы не можете удалять свои сообщения
    Вы не можете голосовать в опросах
    Вы не можете прикреплять файлы к сообщениям
    Вы можете скачивать файлы