2 сезон

iTunes

1 сезон

1

iTunes

iTunes

iTunes

1 сезон

RePack

30

ИГРА 18+

pack

ВАЖНО

!!Акция!!

Alien_RageХит недели

RePack

MK11
pack

Забери бонус

RePack

jed

!!Акция!!

Alien_Rage

RePack

fifa19

RePack

Assassins Creed: Odyssey

RePack

NEED FOR SPEED™ PAYBACK

4 сезон

9 сезон

Бесстыжие 9 сезон

Все сериалы

все сериалы на PB.wtf

RePack

FAR CRY 5
  

Коррупционер / The Corruptor (Джеймс Фоули / James Foley) [1999, боевик, триллер, драма, BDRip 720p], DUB, DVO, AVO + Original + Sub (3xRus, Eng) pb.wtf

Коррупционер через торрент pb.wtf

Размер: 5.75 GB | Добавлен: 5 лет 6 мес. назад | Торрент скачан:89 раз
Скачать  

11-04-2015 10:09 Коррупционер Скачать торрент  

Коррупционер / The Corruptor
«Нельзя играть по правилам, когда их нет»


Год выпуска: 1999
Страна: США
Жанр: боевик, триллер, драма, криминал, детектив
Продолжительность: 01:50:10
Перевод: Дублированный, Профессиональный (двухголосый), Авторский (одноголосый)
Субтитры: русские (Forced, d2Lab), русские (Full), русские (d2Lab), английские (SDH)
Режиссер: Джеймс Фоули
В ролях: Чоу Юнь-Фат , Марк Уолберг , Рик Янг , Пол Бен-Виктор , Джонкит Ли , Эндрю Пэнг , Элизабет Линдси , Брайан Кокс , Байрон Манн , Ким Чан , Билл МакДональд , Сьюзи Тринх
Описание::
Лейтенант Ник Чен - один из наиболее заслуженных полицейских Нью-Йорка. Как китайский иммигрант, Чен использовал связи с Триадой, чтобы продвинуться по служебной лестнице. Теперь он поддерживает порядок в Чайна-тауне. Когда началась война между Тонгами и Фукинскими Драконами Чен получает в напарники новичка-идеалиста Денни Уоллеса, который поначалу не осознает всю Влacть и влияние своего нового босса...

R - Лицам до 17 лет обязательно присутствие взрослого
Качество: BDRip 720p
Контейнер (Расширение): MKV
Видео кодек: AVC
Аудио кодек: AC3
Видео: 1280x534 (2.40:1), 5300 Кбит/сек, 23,976 кадр/сек, 0,323 Бит/[Пиксели*Кадры]
Аудио №1: русский / AC3 / 5.1 / 48 kHz / 448 kbps / 16 bit |Дублированный, West Video|
Аудио №2: русский / AC3 / 5.1 / 48 kHz / 448 kbps / 16 bit |Профессиональный двухголосый, d2Lab|
Аудио №3: русский / AC3 / 5.1 / 48 kHz / 448 kbps / 16 bit |Авторский, Ю. Живов|
Аудио №4: русский / AC3 / 2.0 / 48 kHz / 192 kbps / 16 bit |Авторский, А.Гаврилов|
Аудио №5: английский / AC3 / 5.1 / 48 kHz / 640 kbps / 16 bit
Навигация по главам(Чаптеры): естьАвтор рипа: Сообщество:

Код:

Format                                   : Matroska
Format version                           : Version 2
File size                                : 5.75 GiB
Duration                                 : 1h 50mn
Overall bit rate                         : 7 475 Kbps
Movie name                               : Korrupcioner.(1999).BDRip.720p.[denis100]
Encoded date                             : UTC 2015-04-11 09:49:52
Writing application                      : mkvmerge v5.8.0 ('No Sleep / Pillow') built on Sep  2 2012 15:37:04
Writing library                          : libebml v1.2.3 + libmatroska v1.3.0

Video
ID                                       : 1
Format                                   : AVC
Format/Info                              : Advanced Video Codec
Format profile                           : High@L4.1
Format settings, CABAC                   : Yes
Format settings, ReFrames                : 11 frames
Codec ID                                 : V_MPEG4/ISO/AVC
Duration                                 : 1h 50mn
Bit rate                                 : 5 300 Kbps
Width                                    : 1 280 pixels
Height                                   : 534 pixels
Display aspect ratio                     : 2.40:1
Frame rate                               : 23.976 fps
Color space                              : YUV
Chroma subsampling                       : 4:2:0
Bit depth                                : 8 bits
Scan type                                : Progressive
Bits/(Pixel*Frame)                       : 0.323
Stream size                              : 3.96 GiB (69%)
Title                                    : Korrupcioner.(1999).BDRip.720p.[denis100]
Writing library                          : x264 core 146 r2538 121396c
Encoding settings                        : cabac=1 / ref=11 / deblock=1:-3:-3 / analyse=0x3:0x133 / me=umh / subme=11 / psy=1 / psy_rd=1.00:0.00 / mixed_ref=1 / me_range=32 / chroma_me=1 / trellis=2 / 8x8dct=1 / cqm=0 / deadzone=21,11 / fast_pskip=0 / chroma_qp_offset=-2 / threads=6 / lookahead_threads=1 / sliced_threads=0 / nr=0 / decimate=1 / interlaced=0 / bluray_compat=0 / constrained_intra=0 / bframes=12 / b_pyramid=2 / b_adapt=2 / b_bias=0 / direct=3 / weightb=1 / open_gop=0 / weightp=2 / keyint=240 / keyint_min=23 / scenecut=40 / intra_refresh=0 / rc=2pass / mbtree=0 / bitrate=5300 / ratetol=1.0 / qcomp=0.60 / qpmin=0 / qpmax=69 / qpstep=4 / cplxblur=20.0 / qblur=0.5 / ip_ratio=1.40 / pb_ratio=1.30 / aq=1:1.00
Language                                 : English
Default                                  : Yes
Forced                                   : No

Audio #1
ID                                       : 2
Format                                   : AC-3
Format/Info                              : Audio Coding 3
Mode extension                           : CM (complete main)
Codec ID                                 : A_AC3
Duration                                 : 1h 50mn
Bit rate mode                            : Constant
Bit rate                                 : 448 Kbps
Channel(s)                               : 6 channels
Channel positions                        : Front: L C R, Side: L R, LFE
Sampling rate                            : 48.0 KHz
Bit depth                                : 16 bits
Compression mode                         : Lossy
Stream size                              : 353 MiB (6%)
Title                                    : Дублированный, West Video
Language                                 : Russian
Default                                  : Yes
Forced                                   : No

Audio #2
ID                                       : 3
Format                                   : AC-3
Format/Info                              : Audio Coding 3
Mode extension                           : CM (complete main)
Codec ID                                 : A_AC3
Duration                                 : 1h 50mn
Bit rate mode                            : Constant
Bit rate                                 : 448 Kbps
Channel(s)                               : 6 channels
Channel positions                        : Front: L C R, Side: L R, LFE
Sampling rate                            : 48.0 KHz
Bit depth                                : 16 bits
Compression mode                         : Lossy
Stream size                              : 353 MiB (6%)
Title                                    : Профессиональный двухголосый, d2Lab
Language                                 : Russian
Default                                  : No
Forced                                   : No

Audio #3
ID                                       : 4
Format                                   : AC-3
Format/Info                              : Audio Coding 3
Mode extension                           : CM (complete main)
Codec ID                                 : A_AC3
Duration                                 : 1h 50mn
Bit rate mode                            : Constant
Bit rate                                 : 448 Kbps
Channel(s)                               : 6 channels
Channel positions                        : Front: L C R, Side: L R, LFE
Sampling rate                            : 48.0 KHz
Bit depth                                : 16 bits
Compression mode                         : Lossy
Stream size                              : 353 MiB (6%)
Title                                    : Авторский, Ю. Живов
Language                                 : Russian
Default                                  : No
Forced                                   : No

Audio #4
ID                                       : 5
Format                                   : AC-3
Format/Info                              : Audio Coding 3
Mode extension                           : CM (complete main)
Codec ID                                 : A_AC3
Duration                                 : 1h 50mn
Bit rate mode                            : Constant
Bit rate                                 : 192 Kbps
Channel(s)                               : 2 channels
Channel positions                        : Front: L R
Sampling rate                            : 48.0 KHz
Bit depth                                : 16 bits
Compression mode                         : Lossy
Stream size                              : 151 MiB (3%)
Title                                    : Авторский, А.Гаврилов
Language                                 : Russian
Default                                  : No
Forced                                   : No

Audio #5
ID                                       : 6
Format                                   : AC-3
Format/Info                              : Audio Coding 3
Mode extension                           : CM (complete main)
Codec ID                                 : A_AC3
Duration                                 : 1h 50mn
Bit rate mode                            : Constant
Bit rate                                 : 640 Kbps
Channel(s)                               : 6 channels
Channel positions                        : Front: L C R, Side: L R, LFE
Sampling rate                            : 48.0 KHz
Bit depth                                : 16 bits
Compression mode                         : Lossy
Stream size                              : 504 MiB (9%)
Language                                 : English
Default                                  : No
Forced                                   : No

Text #1
ID                                       : 7
Format                                   : UTF-8
Codec ID                                 : S_TEXT/UTF8
Codec ID/Info                            : UTF-8 Plain Text
Title                                    : Forced, d2Lab
Language                                 : Russian
Default                                  : Yes
Forced                                   : No

Text #2
ID                                       : 8
Format                                   : UTF-8
Codec ID                                 : S_TEXT/UTF8
Codec ID/Info                            : UTF-8 Plain Text
Title                                    : Full
Language                                 : Russian
Default                                  : No
Forced                                   : No

Text #3
ID                                       : 9
Format                                   : UTF-8
Codec ID                                 : S_TEXT/UTF8
Codec ID/Info                            : UTF-8 Plain Text
Title                                    : d2Lab
Language                                 : Russian
Default                                  : No
Forced                                   : No

Text #4
ID                                       : 10
Format                                   : UTF-8
Codec ID                                 : S_TEXT/UTF8
Codec ID/Info                            : UTF-8 Plain Text
Title                                    : SDH
Language                                 : English
Default                                  : No
Forced                                   : No

Menu
00:00:00.000                             : en:Chapter 01
00:02:45.163                             : en:Chapter 02
00:04:05.870                             : en:Chapter 03
00:08:43.188                             : en:Chapter 04
00:12:40.509                             : en:Chapter 05
00:17:49.692                             : en:Chapter 06
00:21:54.354                             : en:Chapter 07
00:26:32.965                             : en:Chapter 08
00:29:13.292                             : en:Chapter 09
00:32:33.826                             : en:Chapter 10
00:41:45.710                             : en:Chapter 11
00:44:52.188                             : en:Chapter 12
00:52:50.208                             : en:Chapter 13
00:59:44.037                             : en:Chapter 14
01:05:25.045                             : en:Chapter 15
01:07:11.568                             : en:Chapter 16
01:12:31.512                             : en:Chapter 17
01:15:24.478                             : en:Chapter 18
01:22:37.993                             : en:Chapter 19
01:26:59.380                             : en:Chapter 20
01:30:13.615                             : en:Chapter 21
01:41:08.979                             : en:Chapter 22
01:45:10.595                             : en:Chapter 23
01:50:09.603                             : en:Chapter 24

x264 [info]: frame I:1060 Avg QP:14.53 size:106830
x264 [info]: frame P:39847 Avg QP:17.10 size: 46683
x264 [info]: frame B:117595 Avg QP:19.23 size: 20438
pb.wtf



Скачать Коррупционер через торрент http://i57.fastpic.ru/big/2015/0411/31/3dea6b8e19f700521ca5c906b49a7131.png Скачать фильм Коррупционер через торрент бесплантно в хорошем качестве Описание::Лейтенант Ник Чен - один из наиболее заслуженных полицейских Нью-Йорка. Как китайский иммигрант, Чен использовал связи с Триадой, ... 9.7 10 10
Торрент: Зарегистрирован [2015-04-11 10:09] · скачан: 89 раз
Статус: √ проверено
Размер: 5.75 GB
Как cкачать? Как скачать Коррупционер через торрент | qTorrent

% Раздел Тема Автор DL S | L
Фильмы [HD 720p, 1080p] (Хороший звук DUB, MVO) [ 9.86 GB ] Коррупционер / The Corruptor [1999 BDRip 1080p] DUB DVO 2 x AVO msltel Скачать
1 | 0
Фильмы до 2000 г. [ 3.08 GB ] Коррупционер / The Corruptor [1999 BDRip-AVC] DUB DVO 2 x AVO msltel Скачать
1 | 0
Фильмы с авторской озвучкой [ 1.6 GB ] Коррупционер / The Corruptor [1999 DVDRip] 2x[AVO] + killermax2013 Скачать
1 | 0
Фильмы до 2000 г. [ 1.37 GB ] Коррупционер / The Corruptor [1999 DVDRip] Ворон Скачать
1 | 0

28-11-2019 20:33  

Отключить всю рекламу на сайте

    Дорогой пользователь! Огромная просьба, поблагодарите релизера, оцените раздачу и оставьте свои комментарий, если Вы скачали Коррупционер через торрент бесплатно! Внесите свою лепту в развитие PiratBit!
    Комментировать посты могут только пользователи прошедшие не сложную регистрацию
    Показать сообщения:    

    Коррупционер через торрент
    Скачать бесплатно Коррупционер
    Коррупционер скачать торрент
    Коррупционер смотреть онлайн
    Cкачать фильм Коррупционер бесплатно
    Коррупционер скачать торрент в хорошем качестве
    Коррупционер смотреть онлайн бесплатно в хорошем качестве


    Вы не можете начинать темы
    Вы не можете отвечать на сообщения
    Вы не можете редактировать свои сообщения
    Вы не можете удалять свои сообщения
    Вы не можете голосовать в опросах
    Вы не можете прикреплять файлы к сообщениям
    Вы можете скачивать файлы