Ссылка на приватное зеркало нашего сайта всего за 1$. Внимание количество ограничено!!!

2 сезон

iTunes

1 сезон

1

2 сезон

2 сезон

iTunes

1 сезон

RePack

30

Ultimate

ВАЖНО

ИГРА 18+

pack

RePack

MK11
pack

Забери бонус

RePack

jed

!!Акция!!

Alien_Rage

RePack

fifa19

RePack

Assassins Creed: Odyssey

RePack

NEED FOR SPEED™ PAYBACK

4 сезон

9 сезон

Бесстыжие 9 сезон

Все сериалы

все сериалы на PB.wtf

RePack

FAR CRY 5
  

Простушка / The DUFF (Эри Сандел ) [2015, комедия, WEB-DL 1080p, Дубляж] iTunes pb.wtf

Простушка через торрент pb.wtf

Размер: 3.41 GB | Добавлен: 5 лет 7 мес. назад | Торрент скачан:816 раз
Скачать  

12-03-2015 19:40 Простушка Скачать торрент  


Простушка / The DUFF
«Или вы знаете её, или у вас есть такая... или ты сама»

ИНФОРМАЦИЯ:
Год выпуска:2015
Страна: США
Жанр: комедия

Продолжительность: 01:37:07
Перевод: Дубляж - [Лицензия / iTunes]
Режиссер: Эри Сандел

В Ролях:


Мэй Уитман (Bianca), Робби Амелл (Wesley), Белла Торн (Madison), Бьянка А. Сантос (Casey), Скайлер Сэмюэлс (Jess), Романи Малко (Principal Buchanon), Ник Эверсман (Toby), Крис Уайлд (Mr. Filmore), Кен Жонг (Mr. Arthur), Эллисон Дженни (Dottie), Ребекка Вейл (Caitlyn), Сет Меривезер (A.J.)

ОПИСАНИЕ:
Качок, ботан, рокер, стерва - в каждой компании есть персонажи с такими кличками. Бьянка Пайпер не подозревает, как ее зовут за ее спиной. Подружки списывают у нее физику и берут ее с собой на тусовки, чтобы круче смотреться на ее фоне. Школьный плейбой Уэсли Раш открывает ей глаза на правду... Как Бьянке избавиться от позорного статуса, стать неотразимой и завоевать сердце первого красавца?

  • Мировая премьера:12 февраля 2015

    ТЕХ.ДАННЫЕ:
    Качество: WEB-DL 1080p
    Формат: MKV
    Видео кодек: AVC
    Аудио кодек: AC3
    Видео: AVC, 1920x864 (2.222), 4544 kbps, 25 fps, 0,110 bpp
    Аудио: русский / AC3 / 5.1 / 48 kHz / 384 kbps / 16 bit ||
    Навигация по главам: есть



    Код:

    General
    Unique ID                                : 176101342123982239388846181321167212126 (0x847BE2828975ECA7888C3320C0AE0E5E)
    Complete name                            : D:\Торенты\Prostushka.2015.D.WEB-DL.1080p.nnm-club.mkv
    Format                                   : Matroska
    Format version                           : Version 4 / Version 2
    File size                                : 3.41 GiB
    Duration                                 : 1h 37mn
    Overall bit rate                         : 5 028 Kbps
    Encoded date                             : UTC 2015-03-12 18:37:53
    Writing application                      : mkvmerge v7.6.0 ('Garden of Dreams') 32bit built on Feb  8 2015 12:51:39
    Writing library                          : libebml v1.3.1 + libmatroska v1.4.2

    Video
    ID                                       : 1
    Format                                   : AVC
    Format/Info                              : Advanced Video Codec
    Format profile                           : High@L4.0
    Format settings, CABAC                   : Yes
    Format settings, ReFrames                : 5 frames
    Codec ID                                 : V_MPEG4/ISO/AVC
    Duration                                 : 1h 37mn
    Bit rate                                 : 4 544 Kbps
    Width                                    : 1 920 pixels
    Height                                   : 864 pixels
    Display aspect ratio                     : 2.222
    Frame rate                               : 25.000 fps
    Color space                              : YUV
    Chroma subsampling                       : 4:2:0
    Bit depth                                : 8 bits
    Scan type                                : Progressive
    Bits/(Pixel*Frame)                       : 0.110
    Stream size                              : 3.08 GiB (90%)
    Language                                 : English
    Default                                  : Yes
    Forced                                   : No
    Color primaries                          : BT.709-5, BT.1361, IEC 61966-2-4, SMPTE RP177
    Transfer characteristics                 : BT.709-5, BT.1361
    Matrix coefficients                      : BT.709-5, BT.1361, IEC 61966-2-4 709, SMPTE RP177

    Audio
    ID                                       : 2
    Format                                   : AC-3
    Format/Info                              : Audio Coding 3
    Mode extension                           : CM (complete main)
    Codec ID                                 : A_AC3
    Duration                                 : 1h 37mn
    Bit rate mode                            : Constant
    Bit rate                                 : 384 Kbps
    Channel(s)                               : 6 channels
    Channel positions                        : Front: L C R, Side: L R, LFE
    Sampling rate                            : 48.0 KHz
    Bit depth                                : 16 bits
    Compression mode                         : Lossy
    Stream size                              : 267 MiB (8%)
    Language                                 : Russian
    Default                                  : Yes
    Forced                                   : No

    Menu
    00:00:00.000                             : en:Глава 1
    00:05:22.000                             : en:Глава 2
    00:10:17.000                             : en:Глава 3
    00:16:10.000                             : en:Глава 4
    00:21:21.000                             : en:Глава 5
    00:26:54.000                             : en:Глава 6
    00:31:56.000                             : en:Глава 7
    00:37:23.000                             : en:Глава 8
    00:42:10.000                             : en:Глава 9
    00:47:21.000                             : en:Глава 10
    00:53:15.000                             : en:Глава 11
    00:58:19.000                             : en:Глава 12
    01:04:04.000                             : en:Глава 13
    01:09:46.000                             : en:Глава 14
    01:15:12.000                             : en:Глава 15
    01:20:16.000                             : en:Глава 16
    01:25:25.000                             : en:Глава 17
    01:29:53.000                             : en:Глава 18

    Скриншоты:


    © Оформление by Ворон
    pb.wtf



  • Скачать Простушка через торрент http://pic.kartinco.top/images/6/ordi9.jpg Скачать фильм Простушка через торрент бесплантно в хорошем качестве Е:Качок, ботан, рокер, стерва - в каждой компании есть персонажи с такими кличками. Бьянка Пайпер не подозревает, как ее зовут за ее ... 9.2 10 59
    Info! Золотая раздача, скачанное не засчитывается.
    Торрент: Зарегистрирован [2015-04-11 10:51] · скачан: 816 раз
    Статус: √ проверено
    Размер: 3.41 GB
    Как cкачать? Как скачать Простушка через торрент | qTorrent

    % Раздел Тема Автор DL S | L
    Фильмы 2015 [DVDrip, WEB-DLRip, HDrip] [ 1.46 GB ] Простушка / The DUFF [2015 BDRip-AVC] Dub potroks Скачать
    1 | 0
    Фильмы 2015 [DVDrip, WEB-DLRip, HDrip] [ 2.04 GB ] Простушка / The DUFF [2015 HDRip ""] coc900 Скачать
    1 | 0

    28-11-2019 20:33  

    Отключить всю рекламу на сайте

    12-03-2015 21:06 Простушка Скачать торрент  

    смотрим и показываем любимым ... ( а что делать?) .. спасибо.pb.wtf



    13-03-2015 10:54 Простушка Скачать торрент  

    ну да)))) кино для двоих...)))pb.wtf



    14-03-2015 12:48 Простушка Скачать торрент  

    детский ?pb.wtf



    14-03-2015 16:10 Простушка Скачать торрент  

    неплохой легкий фильм-посмотрели с супругой-она довольнаpb.wtf



    14-03-2015 21:27 Простушка Скачать торрент  

    Не рекомендуется к просмотру лицам достигшим 21 годаpb.wtf



    15-03-2015 10:53 Простушка Скачать торрент  

    rodjer44 писал(а):

    Не рекомендуется к просмотру лицам достигшим 21 года

    :rofle:
    фильм - ни о чёмpb.wtf



    21-03-2015 05:01 Простушка Скачать торрент  

    классный фильмpb.wtf



    21-03-2015 19:32 Простушка Скачать торрент  

    судя по описанию это инструкция-"как стать гламурной курицей за один день"pb.wtf



    11-04-2015 13:00 Простушка Скачать торрент  

    кино о ТП для просмотра исключительно ТПpb.wtf



    11-04-2015 15:41 Простушка Скачать торрент  

    прикольный кин.pb.wtf



      Дорогой пользователь! Огромная просьба, поблагодарите релизера, оцените раздачу и оставьте свои комментарий, если Вы скачали Простушка через торрент бесплатно! Внесите свою лепту в развитие PiratBit!
      Комментировать посты могут только пользователи прошедшие не сложную регистрацию
      Показать сообщения:    

      Простушка через торрент
      Скачать бесплатно Простушка
      Простушка скачать торрент
      Простушка смотреть онлайн
      Cкачать фильм Простушка бесплатно
      Простушка скачать торрент в хорошем качестве
      Простушка смотреть онлайн бесплатно в хорошем качестве


      Вы не можете начинать темы
      Вы не можете отвечать на сообщения
      Вы не можете редактировать свои сообщения
      Вы не можете удалять свои сообщения
      Вы не можете голосовать в опросах
      Вы не можете прикреплять файлы к сообщениям
      Вы можете скачивать файлы