Ссылка на приватное зеркало нашего сайта всего за 1$. Внимание количество ограничено!!!

2 сезон

iTunes

1 сезон

1

iTunes

iTunes

iTunes

1 сезон

RePack

30

ИГРА 18+

pack

ВАЖНО

!!Акция!!

Alien_RageХит недели

RePack

MK11
pack

Забери бонус

RePack

jed

!!Акция!!

Alien_Rage

RePack

fifa19

RePack

Assassins Creed: Odyssey

RePack

NEED FOR SPEED™ PAYBACK

4 сезон

9 сезон

Бесстыжие 9 сезон

Все сериалы

все сериалы на PB.wtf

RePack

FAR CRY 5
  

Призрак в кривом зеркале / Серии:1-4 из 4 (Вячеслав Лавров) [2015 г., Детектив, криминал, экранизация, WEB-DLRip] pb.wtf

Призрак в кривом зеркале через торрент pb.wtf

Размер: 2.34 GB | Добавлен: 5 лет 6 мес. назад | Торрент скачан:354 раза
Скачать  

11-04-2015 18:41 Призрак в кривом зеркале Скачать торрент  

Призрак в кривом зеркале Год выпуска: 2015
Страна: Россия "ООО Стар Медиа"
Жанр: Детектив, криминал, экранизация
Продолжительность: 4 x ~ 00:45:00

Режиссер: Вячеслав Лавров

Премьера в мире: 11 апреля 2015



В ролях: Алексей Секирин, Сергей Колешня, Людмила Гаврилова, Анжелика Кошевая, Нина Шацкая, Глеб Подгородинский, Нина Лощинина, Светлана Малюкова, Денис Старков, Виктория Герасимова, Денис Бобышев, Алексей Кашников

Описание: Причина, по которой владелица старинной усадьбы мадам Шестакова приглашает сыщиков к себе в дом, кажется на первый взгляд пугающей. В доме завелось привидение, считает она. По ночам кто-то скрипит половицами, повсюду спонтанно то включается, то выключается свет, а во флигеле мелькает тень женщины в белом. В привидений наши герои, разумеется, не верят, поэтому вынуждены докапываться до правды, включая логику и дедукцию. К тому же, как объяснить убийства, происходящие в округе, которые явно связаны с тайнами, которые хранит дом Шестаковой? Привидению, даже если допустить, что оно существует, такое явно не под силу...

Качество: WEB-DLRip
Формат: AVI
Видео кодек: XviD
Аудио кодек: AC3
Видео: Xvid 720x400, 25fps, 1654kbps
Аудио: Dolby AC3, 48000Hz, stereo, 192kbps
Релиз от: wowa63Скриншоты
скриншот  скриншот  скриншот  скриншот  скриншот  
скриншот  скриншот  скриншот  




General
Complete name : E:\4005\Prizrak.v.krivom.zerkale.2015.WEB-DLRip.Files-x\01.Prizrak.v.krivom.zerkale.2015.WEB-DLRip.Files-x.avi
Format : AVI
Format/Info : Audio Video Interleave
File size : 598 MiB
Duration : 45mn 5s
Overall bit rate : 1 856 Kbps
Writing application : VirtualDubMod 1.5.10.3 | (build 2550/release)
Writing library : VirtualDubMod build 2550/release

Video
ID : 0
Format : MPEG-4 Visual
Format profile : Advanced Simple@L5
Format settings, BVOP : 1
Format settings, QPel : No
Format settings, GMC : No warppoints
Format settings, Matrix : Custom
Codec ID : XVID
Codec ID/Hint : XviD
Duration : 45mn 5s
Bit rate : 1 654 Kbps
Width : 720 pixels
Height : 400 pixels
Display aspect ratio : 16:9
Frame rate : 25.000 fps
Color space : YUV
Chroma subsampling : 4:2:0
Bit depth : 8 bits
Scan type : Progressive
Compression mode : Lossy
Bits/(Pixel*Frame) : 0.230
Stream size : 533 MiB (89%)
Writing library : XviD 73

Audio
ID : 1
Format : AC-3
Format/Info : Audio Coding 3
Mode extension : CM (complete main)
Format settings, Endianness : Big
Codec ID : 2000
Duration : 45mn 5s
Bit rate mode : Constant
Bit rate : 192 Kbps
Channel(s) : 2 channels
Channel positions : Front: L R
Sampling rate : 48.0 KHz
Bit depth : 16 bits
Compression mode : Lossy
Stream size : 61.9 MiB (10%)
Alignment : Split accross interleaves
Interleave, duration : 40 ms (1.00 video frame)
Interleave, preload duration : 500 ms

pb.wtf



Скачать Призрак в кривом зеркале через торрент http://pic.kartinco.top/images/11/ljk15.jpg Скачать фильм Призрак в кривом зеркале через торрент бесплантно в хорошем качестве Описание: Причина, по которой владелица старинной усадьбы мадам Шестакова приглашает сыщиков к себе в дом, кажется на первый взгляд ... 7.6 10 12
Торрент: Зарегистрирован [2015-04-11 18:46] · скачан: 354 раз
Статус: √ проверено
Размер: 2.34 GB
Как cкачать? Как скачать Призрак в кривом зеркале через торрент | qTorrent

% Раздел Тема Автор DL S | L
Наши сериалы [ 12.02 GB ] Призрак в кривом зеркале / Серии: 1-4 из 4 [2015 экранизация HDTV 1080i] bober100 Скачать
1 | 0

28-11-2019 20:33  

Отключить всю рекламу на сайте

    Дорогой пользователь! Огромная просьба, поблагодарите релизера, оцените раздачу и оставьте свои комментарий, если Вы скачали Призрак в кривом зеркале через торрент бесплатно! Внесите свою лепту в развитие PiratBit!
    Комментировать посты могут только пользователи прошедшие не сложную регистрацию
    Показать сообщения:    

    Призрак в кривом зеркале через торрент
    Скачать бесплатно Призрак в кривом зеркале
    Призрак в кривом зеркале скачать торрент
    Призрак в кривом зеркале смотреть онлайн
    Cкачать фильм Призрак в кривом зеркале бесплатно
    Призрак в кривом зеркале скачать торрент в хорошем качестве
    Призрак в кривом зеркале смотреть онлайн бесплатно в хорошем качестве


    Вы не можете начинать темы
    Вы не можете отвечать на сообщения
    Вы не можете редактировать свои сообщения
    Вы не можете удалять свои сообщения
    Вы не можете голосовать в опросах
    Вы не можете прикреплять файлы к сообщениям
    Вы можете скачивать файлы