Ссылка на приватное зеркало всего за 1$. Внимание количество ограничено!!!

iTunes

iTunes

iTunes

1

iTunes

iTunes

iTunes

iTunes

iTunes

30
pack

$ от Little Big

ВАЖНО

!!Акция!!

Alien_RageХит недели

RePack

Resident Evil 21

ИГРА 18+

pack

RePack

jed

!!Акция!!

Alien_Rage

RePack

fifa19

RePack

Assassins Creed: Odyssey

RePack

NEED FOR SPEED™ PAYBACK

4 сезон

9 сезон

Бесстыжие 9 сезон

Все сериалы

все сериалы на PB.wtf

RePack

FAR CRY 5
  

Суперфорсаж! / Superfast! (Джейсон Фридберг / Jason Friedberg, Аарон Зельцер / Aaron Seltzer) [2015, США, комедия, WEB-DL 1080p,] Дубляж] iTunes pb.wtf

Суперфорсаж! через торрент pb.wtf

Размер: 3.62 GB | Добавлен: 5 лет 3 мес. назад | Торрент скачан:1241 раз
Скачать  

12-04-2015 02:00 Суперфорсаж! Скачать торрент  

Суперфорсаж! / Superfast!
«They're going nowhere...fast»


Год выпуска: 2015
Страна: США
Жанр: комедия
Продолжительность: 01:35:14
Перевод: Дубляж - [Лицензия / iTunes]
Субтитры: Нет
Режиссер: Джейсон Фридберг / Jason Friedberg, Аарон Зельцер / Aaron Seltzer
В ролях:

Алекс Ашбаух (Officer Lucas White), Дэйл Павински (Vin Serento), Лили Мирожник (Jordana), Андреа Наведо (Michelle), Дэниэл Буко (Curtis), Дио Джонсон (Detective Rock Johnson), Шантель Вислэвски (Officer Julie Canaro), Джозеф Джулиан Сория (Cesar), Гонсало Менендес (Detective Hanover), Омар Чапарро (Juan Carlos de la Sol), Вероника МакКласки (Street Dancer), Майкл Флорес (Thug)
Описание:
Короли комедии снова в строю. На этот раз объектом пародии стала «форсажная» франшиза и прочие фильмы о гонках, ограблениях и крутых тачках. Шутки еще смешнее, ирония еще жестче, плотность гэгов - еще выше.
Мировая премьера: 5 марта 2015
    Качество: WEB-DL 1080p
    Формат: MKV
    Видео кодек: AVC
    Аудио кодек:AC3
    Видео: AVC, 1920x1080 (16:9), 4944 kbps, 25 fps, 0,095 bpp
    Аудио: русский / AC3 / 5.1 / 48 kHz / 384 kbps / 16 bit ||


Код:

General
Unique ID                                : 200839123965404180137684465086257105350 (0x97183552298C7D8486D2690F108709C6)
Complete name                            : D:\Games\SuperForsazh.2015.D.WEB-DL.1080p.mkv
Format                                   : Matroska
Format version                           : Version 4 / Version 2
File size                                : 3.62 GiB
Duration                                 : 1h 35mn
Overall bit rate                         : 5 436 Kbps
Encoded date                             : UTC 2015-04-11 05:15:23
Writing application                      : mkvmerge v7.6.0 ('Garden of Dreams') 32bit built on Feb  8 2015 12:51:39
Writing library                          : libebml v1.3.1 + libmatroska v1.4.2
DURATION                                 : 01:35:14.368000000
NUMBER_OF_FRAMES                         : 178574
NUMBER_OF_BYTES                          : 274289664
_STATISTICS_WRITING_APP                  : mkvmerge v7.6.0 ('Garden of Dreams') 32bit built on Feb  8 2015 12:51:39
_STATISTICS_WRITING_DATE_UTC             : 2015-04-11 05:15:23
_STATISTICS_TAGS                         : BPS DURATION NUMBER_OF_FRAMES NUMBER_OF_BYTES

Video
ID                                       : 1
Format                                   : AVC
Format/Info                              : Advanced Video Codec
Format profile                           : High@L4.0
Format settings, CABAC                   : Yes
Format settings, ReFrames                : 4 frames
Codec ID                                 : V_MPEG4/ISO/AVC
Duration                                 : 1h 35mn
Bit rate                                 : 4 944 Kbps
Width                                    : 1 920 pixels
Height                                   : 1 080 pixels
Display aspect ratio                     : 16:9
Frame rate                               : 25.000 fps
Color space                              : YUV
Chroma subsampling                       : 4:2:0
Bit depth                                : 8 bits
Scan type                                : Progressive
Bits/(Pixel*Frame)                       : 0.095
Stream size                              : 3.29 GiB (91%)
Language                                 : English
Default                                  : Yes
Forced                                   : No
Color primaries                          : BT.709-5, BT.1361, IEC 61966-2-4, SMPTE RP177
Transfer characteristics                 : BT.709-5, BT.1361
Matrix coefficients                      : BT.709-5, BT.1361, IEC 61966-2-4 709, SMPTE RP177

Audio
ID                                       : 2
Format                                   : AC-3
Format/Info                              : Audio Coding 3
Mode extension                           : CM (complete main)
Codec ID                                 : A_AC3
Duration                                 : 1h 35mn
Bit rate mode                            : Constant
Bit rate                                 : 384 Kbps
Channel(s)                               : 6 channels
Channel positions                        : Front: L C R, Side: L R, LFE
Sampling rate                            : 48.0 KHz
Bit depth                                : 16 bits
Compression mode                         : Lossy
Stream size                              : 262 MiB (7%)
Language                                 : Russian
Default                                  : Yes
Forced                                   : No

Menu
00:00:00.000                             : en:Глава 1
00:05:11.000                             : en:Глава 2
00:12:34.000                             : en:Глава 3
00:17:33.000                             : en:Глава 4
00:23:59.000                             : en:Глава 5
00:31:47.000                             : en:Глава 6
00:35:50.000                             : en:Глава 7
00:41:20.000                             : en:Глава 8
00:44:37.000                             : en:Глава 9
00:49:49.000                             : en:Глава 10
00:54:34.000                             : en:Глава 11
01:00:01.000                             : en:Глава 12
01:04:54.000                             : en:Глава 13
01:11:02.000                             : en:Глава 14
01:15:51.000                             : en:Глава 15
01:20:20.000                             : en:Глава 16
01:25:48.000                             : en:Глава 17



pb.wtf



Скачать Суперфорсаж! через торрент http://i6.imageban.ru/out/2015/04/12/067e1d659c0dcdc1d7b04ca69b5bebdf.jpg Скачать фильм Суперфорсаж! через торрент бесплантно в хорошем качестве Описание: Короли комедии снова в строю. На этот раз объектом пародии стала «форсажная» франшиза и прочие фильмы о гонках, ограблениях и ... 9.5 10 21
Info! Золотая раздача, скачанное не засчитывается.
Торрент: Зарегистрирован [2015-04-12 02:00] · скачан: 1 241 раз
Статус: √ проверено
Размер: 3.62 GB
Как cкачать? Как скачать Суперфорсаж! через торрент | qTorrent

% Раздел Тема Автор DL S | L
Фильмы (Blu-ray, BD-Remux, HDDVD) [ 16.94 GB ] Суперфорсаж! / Superfast! [2015 BD-Remux ] Бумер Скачать
1 | 0
Фильмы 2015 [DVDrip, WEB-DLRip, HDrip] [ 1.46 GB ] Суперфорсаж! / Superfast! [2014 WEB-DLRip] ] White Smoke Скачать
1 | 0

28-11-2019 20:33  

Отключить всю рекламу на сайте

12-04-2015 05:38 Суперфорсаж! Скачать торрент  

а без цензуры будет?pb.wtf



    Дорогой пользователь! Огромная просьба, поблагодарите релизера, оцените раздачу и оставьте свои комментарий, если Вы скачали Суперфорсаж! через торрент бесплатно! Внесите свою лепту в развитие PiratBit!
    Комментировать посты могут только пользователи прошедшие не сложную регистрацию
    Показать сообщения:    

    Суперфорсаж! через торрент
    Скачать бесплатно Суперфорсаж!
    Суперфорсаж! скачать торрент
    Суперфорсаж! смотреть онлайн
    Cкачать фильм Суперфорсаж! бесплатно
    Суперфорсаж! скачать торрент в хорошем качестве
    Суперфорсаж! смотреть онлайн бесплатно в хорошем качестве


    Вы не можете начинать темы
    Вы не можете отвечать на сообщения
    Вы не можете редактировать свои сообщения
    Вы не можете удалять свои сообщения
    Вы не можете голосовать в опросах
    Вы не можете прикреплять файлы к сообщениям
    Вы можете скачивать файлы