2 сезон

iTunes

MVO

1

2 сезон

iTunes

iTunes

1 сезон

RePack

30

Новинка

ВАЖНО

ИГРА 18+

pack

RePack

MK11
pack

Легкие деньги

RePack

jed

RePack

fifa19

RePack

RDR2

RePack

NEED FOR SPEED™ PAYBACK

4 сезон

9 сезон

Бесстыжие 9 сезон

Все сериалы

все сериалы на PB.wtf

RePack

FAR CRY 5

Anonymous, добрый вечер, мы не успеваем собрать деньги на оплату серверов за декабрь и январь, помогите нам пожалуйста в это трудное время. В качестве благодарности мы отключим Вам всю рекламу на сайте (укажите свой ник в строку Ваше имя)!

×
  
Magnet ссылка

Разрушитель / Demolition Man (Марко Брамбилла) [1993 г., фантастика, боевик, триллер, криминал, BDRip 720p] (60 fps) Dub + Original Eng pb.wtf

Разрушитель через торрент pb.wtf

Размер: 5.15 GB | Добавлен: 5 лет 9 мес. назад | Торрент скачан:336 раз
Скачать  

12-04-2015 15:19 Разрушитель Скачать торрент  

Разрушитель / Demolition Man
Год выпуска: 1993
Страна: США
Жанр: фантастика, боевик, триллер, криминал
Продолжительность: 01:55:02
Перевод: Дубляж, Лицензия
Субтитры: Russian, English

Режиссер: Марко Брамбилла
Продюссер: Майкл Леви, Джоэл Силвер, Стивен Брэттер
Сценарий: Питер М. Ленков, Роберт Рено, Дэниэл Уотерс

Бюджет: $57 000 000
Премьера в мире: 7 октября 1993

IMDB 6.60 (108 629)


В ролях: Сильвестр Сталлоне, Уэсли Снайпс, Сандра Буллок, Найджел Хоторн, Бенджамин Брэтт, Боб Гантон, Гленн Шэдикс, Дэнис Лири, Гранд Л. Буш, Пэт Скиппер,

Роли дублировали: Вадим Яковлев, Дмитрий Матвеев, Валерий Кухарешин, Владимир Вихров, Ольга Голованова

Описание: В 2032 году в крио-тюрьме после 35-летней заморозки пробуждается один из самых опасных преступников Саймон Феникс и решает взять приступом спокойный, свободный от всякого насилия Сан-Анджелес.Неспособные справиться с жестокими повадками 1990-х годов, свойственными Фениксу, официальные власти ищут полицейского тех лет, который смог бы одержать верх над преступником 90-х. Для этого они размораживают сержанта Джона Спартана, несправедливо осужденного на срок в крио-тюрьме за его последнюю схватку с Фениксом.

Качество: BDRip 720p / 60 Fps
Формат: MKV
Видео кодек: H.264
Аудио кодек: AC3
Видео: x264, 1280 x 536 (2,40:1), 5643 kbps, 59,880 fps, ( 0.137 bpp)
Аудио#1: AC-3, 48.0 KHz, 6 ch, 384 Kbps (Russian )
Аудио#2: AC-3, 48.0 KHz, 6 ch, 384 Kbps ( English )



скриншот   скриншот   скриншот   скриншот   скриншот   скриншот  Автор рипа: slaventi-69
Общее
Уникальный идентификатор : 194739345034942143209837582201036784193 (0x92816F001A42D9C0A170FDF17D00C241)
Полное имя : D:\ Demolition.Man.(1993).BDRip.720p.(60 Fps).mkv
Формат : Matroska
Версия формата : Version 4 / Version 2
Размер файла : 5,15 Гбайт
Продолжительность : 1 ч. 55 м.
Общий поток : 6414 Кбит/сек
Название фильма : Разрушитель / Demolition Man (1993) BDRip 720p 60 Fps
Дата кодирования : UTC 2015-04-12 14:03:35
Программа кодирования : mkvmerge v6.2.0 ('Promised Land') built on Apr 28 2013 12:22:01
Библиотека кодирования : libebml v1.3.0 + libmatroska v1.4.0

Видео
Идентификатор : 1
Формат : AVC
Формат/Информация : Advanced Video Codec
Профиль формата : High@L4.1
Параметр CABAC формата : Да
Параметр ReFrames формата : 4 кадра
Идентификатор кодека : V_MPEG4/ISO/AVC
Продолжительность : 1 ч. 55 м.
Битрейт : 5643 Кбит/сек
Ширина : 1280 пикселей
Высота : 536 пикселей
Соотношение сторон : 2,40:1
Режим частоты кадров : Постоянный
Частота кадров : 59,880 кадров/сек
Частота кадров в оригинале : 59,940 кадров/сек
Цветовое пространство : YUV
Субдискретизация насыщенности : 4:2:0
Битовая глубина : 8 бит
Тип развёртки : Прогрессивная
Бит/(Пиксели*Кадры) : 0.137
Размер потока : 4,43 Гбайт (86%)
Заголовок : Demolition Man (1993) BDRip 720p ( 60 Fps ).mkv
Библиотека кодирования : x264 core 130 r2273 b3065e6
Настройки программы : cabac=1 / ref=4 / deblock=1:-1:-1 / analyse=0x3:0x113 / me=umh / subme=7 / psy=1 / psy_rd=1.00:0.10 / mixed_ref=1 / me_range=24 / chroma_me=1 / trellis=2 / 8x8dct=1 / cqm=0 / deadzone=21,11 / fast_pskip=1 / chroma_qp_offset=-3 / threads=3 / lookahead_threads=1 / sliced_threads=0 / nr=0 / decimate=1 / interlaced=0 / bluray_compat=0 / constrained_intra=0 / bframes=4 / b_pyramid=2 / b_adapt=2 / b_bias=0 / direct=3 / weightb=1 / open_gop=0 / weightp=2 / keyint=250 / keyint_min=25 / scenecut=40 / intra_refresh=0 / rc_lookahead=50 / rc=2pass / mbtree=1 / bitrate=5643 / ratetol=1.0 / qcomp=0.60 / qpmin=0 / qpmax=69 / qpstep=4 / cplxblur=20.0 / qblur=0.5 / ip_ratio=1.40 / aq=1:1.00
Язык : English
Default : Да
Forced : Нет

Аудио #1
Идентификатор : 2
Формат : AC-3
Формат/Информация : Audio Coding 3
Расширение режима : CM (complete main)
Параметр Endianness формата : Big
Идентификатор кодека : A_AC3
Продолжительность : 1 ч. 55 м.
Вид битрейта : Постоянный
Битрейт : 384 Кбит/сек
Каналы : 6 каналов
Расположение каналов : Front: L C R, Side: L R, LFE
Частота : 48,0 КГц
Битовая глубина : 16 бит
Метод сжатия : С потерями
Размер потока : 316 Мбайт (6%)
Заголовок : Дубляж, Blu-ray CEE
Язык : Russian
Default : Да
Forced : Нет

Аудио #2
Идентификатор : 3
Формат : AC-3
Формат/Информация : Audio Coding 3
Расширение режима : CM (complete main)
Параметр Endianness формата : Big
Идентификатор кодека : A_AC3
Продолжительность : 1 ч. 55 м.
Вид битрейта : Постоянный
Битрейт : 384 Кбит/сек
Каналы : 6 каналов
Расположение каналов : Front: L C R, Side: L R, LFE
Частота : 48,0 КГц
Битовая глубина : 16 бит
Метод сжатия : С потерями
Размер потока : 316 Мбайт (6%)
Заголовок : Оригинал
Язык : English
Default : Нет
Forced : Нет

Текст #1
Идентификатор : 4
Формат : UTF-8
Идентификатор кодека : S_TEXT/UTF8
Идентификатор кодека/Информация : UTF-8 Plain Text
Заголовок : Forced
Язык : Russian
Default : Нет
Forced : Нет

Текст #2
Идентификатор : 5
Формат : UTF-8
Идентификатор кодека : S_TEXT/UTF8
Идентификатор кодека/Информация : UTF-8 Plain Text
Заголовок : Full
Язык : Russian
Default : Нет
Forced : Нет

Текст #3
Идентификатор : 6
Формат : UTF-8
Идентификатор кодека : S_TEXT/UTF8
Идентификатор кодека/Информация : UTF-8 Plain Text
Заголовок : Full
Язык : English
Default : Нет
Forced : Нет

Меню
00:00:00.000 : :Los Angeles 1996: Send in the Maniac
00:02:50.211 : :A Hot Time
00:07:10.847 : :A Cold Sentence
00:11:30.522 : :2032: Lenina Lacks Stimulus
00:16:46.213 : :One Parole Hearing = 4 Mdk's
00:22:59.878 : :No Respect for the Law
00:28:39.467 : :The Governor's Problem
00:31:03.987 : :Legend of the Demolition Man
00:32:43.878 : :Wake-Up Call
00:37:45.554 : :"So Much for the Sea Shells"
00:41:26.775 : :Violence in the Hall
00:47:32.015 : :Blast From the Past
00:51:13.320 : :"Don't You Have Someone to Kill?"
00:54:35.313 : :The Chief's Plan; What All Restaurants Are
00:57:18.017 : :Dining with the Governor
01:00:17.196 : :Attack of the Scraps
01:03:16.542 : :After-Dinner Chats
01:07:41.932 : :21St Century Sex
01:14:57.326 : :A Gift for Lenina; Phoenix's Programming
01:17:39.446 : :Confronting Cocteau
01:19:54.331 : :Wasteland
01:24:09.252 : :Friendly's Manifesto
01:27:03.885 : :"Let's Bring Back the Good Old Days"
01:28:04.904 : :Unwelcome Guests
01:30:25.962 : :Pedal to the Metal
01:34:50.309 : :Unexpected Allies
01:37:10.823 : :End of the Cocteau Plan
01:41:16.904 : :Cryoprison Chaos
01:45:52.179 : :"This Is the Best Day of My Life"
01:48:42.641 : :"I Think I'm Gonna Like the Future"


Разрушитель скачать торрент


pb.wtf



Скачать Разрушитель через торрент http://pic.kartinco.top/images/11/3lmks.jpg Скачать фильм Разрушитель через торрент бесплантно в хорошем качестве Описание: В 2032 году в крио-тюрьме после 35-летней заморозки пробуждается один из самых опасных преступников Саймон Феникс и решает взять ... 9.9 10 34
Info! Золотая раздача, скачанное не засчитывается.
Торрент: Зарегистрирован [2015-04-12 15:19] · скачан: 336 раз
Статус: √ проверено
Размер: 5.15 GB
Как cкачать? Как скачать Разрушитель через торрент | UTorrent

28-11-2019 20:33  

Отключить всю рекламу на сайте

30-11-2017 15:17 Разрушитель Скачать торрент  

дайте скоростиpb.wtf



    Дорогой пользователь! Огромная просьба, поблагодарите релизера, оцените раздачу и оставьте свои комментарий, если Вы скачали Разрушитель через торрент бесплатно! Внесите свою лепту в развитие PiratBit!
    Комментировать посты могут только пользователи прошедшие не сложную регистрацию
    Показать сообщения:    

    Разрушитель через торрент
    Скачать бесплатно Разрушитель
    Разрушитель скачать торрент
    Разрушитель смотреть онлайн
    Cкачать фильм Разрушитель бесплатно
    Разрушитель скачать торрент в хорошем качестве
    Разрушитель смотреть онлайн бесплатно в хорошем качестве


    Вы не можете начинать темы
    Вы не можете отвечать на сообщения
    Вы не можете редактировать свои сообщения
    Вы не можете удалять свои сообщения
    Вы не можете голосовать в опросах
    Вы не можете прикреплять файлы к сообщениям
    Вы можете скачивать файлы