>

8.4

Хороший звук

6.1

MVO

6.4

Line & MVO

1

7.4

1 сезон

6.8

iTunes

7.2

1 сезон

13

6.7

1 сезон

8.3

RePack

30

Deluxe

pack

9.9

Лицензия

ВАЖНО

ИГРА 18+

pack

7.3

RePack

MK11

7.7

RePack

jed

7.8

RePack

fifa19

8.5

RePack

RDR2

RePack

NEED FOR SPEED™ PAYBACK

4 сезон

9 сезон

Бесстыжие 9 сезон

Все сериалы

все сериалы на PB.wtf

RePack

FAR CRY 5

Anonymous, доброй ночи, мы катастрофически не успеваем собрать деньги на оплату серверов, помогите нам пожалуйста 5,10,15р., для нас важна любая помощь . В качестве благодарности мы отключим Вам всю рекламу на сайте (укажите свой ник в строку Ваше имя)!

×
  
Magnet ссылка

Отмороженные / Freezer (Микаэл Саломон) [2014 г., триллер, HDRip, Профессиональный многоголосый, "Лицензия R5"] pb.wtf

Отмороженные через торрент pb.wtf

Размер: 1.47 GB | Добавлен: 6 лет 5 мес. назад | Торрент скачан:705 раз
Смотреть онлайн Отмороженные | Скачать    Ребята, помогите собрать деньги на оплату серверов!!!

12-04-2015 18:23 Отмороженные Скачать торрент  

Отмороженные / Freezer
Год выпуска: 2014
Страна: США / Envision Media Arts
Жанр: триллер
Продолжительность: 01:22:10
Перевод: Профессиональный многоголосый (Лицензия R5)

Режиссер: Микаэл Саломон

IMDB 5.20 (2171)


В ролях: Дилан МакДермотт, Юлия Снигирь, Питер Фачинелли, Милан Малисич, Андрей Ивченко, Паскаль Петарди, Дэвид МакНалли, Маркус Парило

Описание: Роберт Сондерс, обычный механик, потерял сознание на своем дне рождения и очнулся в морозильнике. Появившиеся русские бандиты начинают обвинять его в краже 8 миллионов долларов. Чтоб Роберт быстрее отдал деньги, бандиты начинают пытать его холодом. Температура падает. Страх растет. Перед Робертом встает выбор, замерзнуть от холода или быть убитым русскими бандитами, так как его все равно живым не отпустят. Но может есть третий выбор...

Качество: HDRip
Формат: AVI
Видео кодек: XviD
Аудио кодек: AC3
Видео: 720x304 (2.37:1), 23.976 fps, XviD build 50 ~2098 kbps avg, 0.40 bit/pixel
Аудио: 48 kHz, AC3 Dolby Digital, 3/2 (L,C,R,l,r) + LFE ch, ~448 kbps
скриншот   скриншот   скриншот   скриншот   скриншот   скриншот  

Общее
Полное имя : F:\кино\Отмороженные.2014.HDRip.avi
Формат : AVI
Формат/Информация : Audio Video Interleave
Размер файла : 1,47 Гбайт
Продолжительность : 1 ч. 22 м.
Общий поток : 2555 Кбит/сек
Программа кодирования : VirtualDubMod 1.5.10.3 | (build 2550/release)
Библиотека кодирования : VirtualDubMod build 2550/release

Видео
Идентификатор : 0
Формат : MPEG-4 Visual
Профиль формата : Advanced Simple@L5
Параметр BVOP формата : 2
Параметр QPel формата : Нет
Параметр GMC формата : Без точки перехода
Параметр матрицы формата : Default (H.263)
Идентификатор кодека : XVID
Идентификатор кодека/Подсказка : XviD
Продолжительность : 1 ч. 22 м.
Битрейт : 2098 Кбит/сек
Ширина : 720 пикселей
Высота : 304 пикселя
Соотношение сторон : 2,35:1
Частота кадров : 23,976 кадра/сек
Цветовое пространство : YUV
Субдискретизация насыщенности : 4:2:0
Битовая глубина : 8 бит
Тип развёртки : Прогрессивная
Метод сжатия : С потерями
Бит/(Пиксели*Кадры) : 0.400
Размер потока : 1,20 Гбайт (82%)
Библиотека кодирования : XviD 1.2.1 (UTC 2008-12-04)

Аудио
Идентификатор : 1
Формат : AC-3
Формат/Информация : Audio Coding 3
Расширение режима : CM (complete main)
Параметр Endianness формата : Big
Идентификатор кодека : 2000
Продолжительность : 1 ч. 22 м.
Вид битрейта : Постоянный
Битрейт : 448 Кбит/сек
Каналы : 6 каналов
Расположение каналов : Front: L C R, Side: L R, LFE
Частота : 48,0 КГц
Битовая глубина : 16 бит
Метод сжатия : С потерями
Размер потока : 263 Мбайт (18%)
Выравнивание : Разделение по промежуткам
Продолжительность промежутка : 42 мс. (1,00 видеокадр)
Время предзагрузки промежутка : 500 мс.

pb.wtf



Скачать Отмороженные через торрент https://pic1.kartinco.top/images/10/5qokf.jpg Скачать, смотреть онлайн Отмороженные бесплантно в хорошем качестве Описание: Роберт Сондерс, обычный механик, потерял сознание на своем дне рождения и очнулся в морозильнике. Появившиеся русские бандиты ... 8.5 10 38
Info! Золотая раздача, скачанное не засчитывается.
Торрент: Зарегистрирован [2015-04-12 18:23] · скачан: 705 раз
Статус: √ проверено
Размер: 1.47 GB
Как cкачать? Как скачать Отмороженные через торрент | UTorrent

% Раздел Тема Автор DL S | L
Фильмы 2014 [DVDrip, WEB-DLRip, HDrip] [ 1.37 GB ] Отмороженные / Морозилка / Freezer [2014 HDRip Профессиональное [лицензия] Ворон Скачать
1 | 0
Фильмы (DVD фильмы) [ 4.21 GB ] Отмороженные / Freezer [2014 DVD5] R5 voovaz Скачать
1 | 0
Фильмы [HD 720p, 1080p] (Хороший звук DUB, MVO) [ 5.15 GB ] Отмороженные / Морозилка / Freezer [2014 BDRip [720p] Профессиональное [лицензия] Ворон Скачать
1 | 0
Фильмы 2014 [DVDrip, WEB-DLRip, HDrip] [ 1.46 GB ] Отмороженные / Морозилка / Freezer [2014 HDRip многоголосый] Ворон Скачать
1 | 0
Фильмы [HD 720p, 1080p] (Хороший звук DUB, MVO) [ 5.57 GB ] Отмороженные / Freezer [2014 BDRip 1080p] MVO +Original Assasinca Скачать
1 | 0

28-11-2019 20:33  

Отключить всю рекламу на сайте

12-04-2015 18:32 Отмороженные Скачать торрент  

Почему я не модератор,сейчас бы поставил статус проверено.pb.wtf



12-04-2015 18:41 Отмороженные Скачать торрент  

coc900 проверено yespb.wtf



12-04-2015 21:38 Отмороженные Скачать торрент  

а какая разница, проверено или нет?pb.wtf



13-04-2015 15:30 Отмороженные Скачать торрент  

Бандиты они такие русские sarcasticpb.wtf



13-04-2015 16:31 Отмороженные Скачать торрент  

посмотрел с полгода назад, в качестве заметь)))pb.wtf



13-04-2015 20:31 Отмороженные Скачать торрент  

nightFACEpro писал(а):

посмотрел с полгода назад, в качестве заметь)))

Мы очень рады за тебя, а как фильм то?pb.wtf



14-04-2015 13:12 Отмороженные Скачать торрент  

Русские Бандиты!!!Жжжууууть!!!! :jest3:pb.wtf



14-04-2015 18:34 Отмороженные Скачать торрент  

только русские бандиты не мёрзнут в холодильниках pb.wtf



15-04-2015 17:07 Отмороженные Скачать торрент  

Мне фильм понравился pb.wtf



15-04-2015 18:39 Отмороженные Скачать торрент  

Stasst писал(а):

Бандиты они такие русские sarcastic

в точку javascript:emoticon(' ')pb.wtf



19-04-2015 10:32 Отмороженные Скачать торрент  

Не припомню когда еще такое гумно смотрел! :search:pb.wtf



18-05-2015 07:59 Отмороженные Скачать торрент  

poldgv писал(а):

Не припомню когда еще такое гумно смотрел! :search:

+1pb.wtf



    Дорогой пользователь! Огромная просьба, поблагодарите релизера, оцените раздачу и оставьте свои комментарий, если Вы скачали Отмороженные через торрент бесплатно!
    Комментировать посты могут только пользователи прошедшие не сложную регистрацию
    Показать сообщения:    

    Отмороженные через торрент
    Скачать бесплатно Отмороженные
    Отмороженные скачать торрент
    Отмороженные смотреть онлайн
    Cкачать фильм Отмороженные бесплатно
    Отмороженные скачать торрент в хорошем качестве
    Отмороженные смотреть онлайн бесплатно в хорошем качестве


    Вы не можете начинать темы
    Вы не можете отвечать на сообщения
    Вы не можете редактировать свои сообщения
    Вы не можете удалять свои сообщения
    Вы не можете голосовать в опросах
    Вы не можете прикреплять файлы к сообщениям
    Вы можете скачивать файлы