Ссылка на приватное зеркало нашего сайта всего за 1$. Внимание количество ограничено!!!

2 сезон

iTunes

1 сезон

1

iTunes

iTunes

iTunes

1 сезон

RePack

30

ИГРА 18+

pack

ВАЖНО

!!Акция!!

Alien_RageХит недели

RePack

MK11
pack

Забери бонус

RePack

jed

!!Акция!!

Alien_Rage

RePack

fifa19

RePack

Assassins Creed: Odyssey

RePack

NEED FOR SPEED™ PAYBACK

4 сезон

9 сезон

Бесстыжие 9 сезон

Все сериалы

все сериалы на PB.wtf

RePack

FAR CRY 5
  

Донни Браско / Donnie Brasco (Майк Ньюэлл) (Расширенная версия / Extended Cut) [1997 г., триллер, драма, криминал, биография, BDRip 720p] MVO pb.wtf

Донни Браско через торрент pb.wtf

Размер: 7.75 GB | Добавлен: 5 лет 6 мес. назад | Торрент скачан:102 раза
Скачать  

13-04-2015 06:58 Донни Браско Скачать торрент  

Донни Браско / Donnie Brasco
«Основано на реальной истории»
Год выпуска: 1997
Страна: США
Жанр: триллер, драма, криминал, биография
Продолжительность: 02:27:04
Перевод: Профессиональный многоголосый. закадровый
Субтитры: Отсутствуют

Режиссер: Майк Ньюэлл
Продюссер: Луис Диджиамо, Марк Джонсон, Барри Левинсон
Сценарий: Пол Аттанасио, Джозеф Д. Пистон, Ричард Вудли

Бюджет: $35 000 000
Премьера в мире: 28 февраля 1997










В ролях: Аль Пачино, Джонни Депп, Майкл Мэдсен, Бруно Кёрби, Джеймс Руссо, Энн Хеч, Желько Иванек, Джерри Бекер, Роберт Миано, Брайан Тарантина

Описание: Нью-Йорк, 1978 год. Агент ФБР Джо Пистоне получает новое задание: внедриться в одну из преступных группировок Бруклина с целью получения полноценной информации о деятельности гангстерских банд. Он должен забыть свое настоящее имя, порвать со всеми друзьями и родными, так как теперь он — Донни Браско.Его лучшим другом становится стареющий мафиози, нуждающийся в молодом напарнике. Он верит в Донни и поручает ему самые ответственные дела. Чувствуя свою безнаказанность, Донни понимает: как ни затянула его новая жизнь, дающая практически неограниченную свободу, вернуться обратно еще не поздно.Нужно лишь сделать решающий шаг и предать того, кто стал для него настоящим другом...

Качество: BDRip 720p
Формат: MKV
Видео кодек: H.264
Аудио кодек: AC3
Видео: 1280x528 at 23.976 fps, x264, ~5445 kbps avg, High@L5.1
Аудио#1: Russian: 48 kHz, AC3, 3/2 (L,C,R,l,r) + LFE ch, ~448.00 kbps avg |Многоголосый закадровый|
Релиз от:

General
Unique ID : 220890826712004532444409627022793771960 (0xA62E06983DA498E18423FDD699F60BB8)
Complete name : G:Donnie Brasco (Extended Cut).720p.BluRay.x264.Rus.Eng\Donnie Brasco (Extended Cut).720p.BluRay.x264.mkv
Format : Matroska
Format version : Version 1
File size : 7.75 GiB
Duration : 2h 27mn
Overall bit rate : 7 538 Kbps
Encoded date : UTC 2007-11-04 16:40:34
Writing application : mkvmerge v2.0.2 ('You're My Flame') built on Feb 21 2007 23:40:55
Writing library : libebml v0.7.7 + libmatroska v0.8.1

Video
ID : 1
Format : AVC
Format/Info : Advanced Video Codec
Format profile : High@L5.1
Format settings, CABAC : Yes
Format settings, ReFrames : 8 frames
Format settings, GOP : N=1
Codec ID : V_MPEG4/ISO/AVC
Duration : 2h 27mn
Bit rate : 7 089 Kbps
Width : 1 280 pixels
Height : 528 pixels
Display aspect ratio : 2.40:1
Frame rate mode : Constant
Frame rate : 23.976 fps
Color space : YUV
Chroma subsampling : 4:2:0
Bit depth : 8 bits
Scan type : Progressive
Bits/(Pixel*Frame) : 0.437
Stream size : 7.13 GiB (92%)
Title : VIDEO - REVEiLLE
Writing library : x264 core 55 svn-655
Encoding settings : cabac=1 / ref=5 / deblock=1:-2:-1 / analyse=0x3:0x133 / me=umh / subme=7 / brdo=0 / mixed_ref=1 / me_range=16 / chroma_me=1 / trellis=1 / 8x8dct=1 / cqm=2 / deadzone=21,11 / chroma_qp_offset=0 / threads=3 / nr=0 / decimate=1 / mbaff=0 / bframes=3 / b_pyramid=1 / b_adapt=1 / b_bias=0 / direct=1 / wpredb=1 / bime=1 / keyint=240 / keyint_min=24 / scenecut=40(pre) / rc=2pass / bitrate=7089 / ratetol=1.0 / rceq='blurCplx^(1-qComp)' / qcomp=0.60 / qpmin=10 / qpmax=51 / qpstep=4 / cplxblur=20.0 / qblur=0.5 / ip_ratio=1.40 / pb_ratio=1.30
Language : English
Default : Yes
Forced : No

Audio
ID : 2
Format : AC-3
Format/Info : Audio Coding 3
Mode extension : CM (complete main)
Format settings, Endianness : Big
Codec ID : A_AC3
Duration : 2h 27mn
Bit rate mode : Constant
Bit rate : 448 Kbps
Channel(s) : 6 channels
Channel positions : Front: L C R, Side: L R, LFE
Sampling rate : 48.0 KHz
Bit depth : 16 bits
Compression mode : Lossy
Stream size : 471 MiB (6%)
Title : AC3 5.1 448 kbps
Language : Russian
Default : Yes
Forced : No

pb.wtf



Скачать Донни Браско через торрент http://pic.kartinco.top/images/11/kqliy.jpg Скачать фильм Донни Браско через торрент бесплантно в хорошем качестве Описание: Нью-Йорк, 1978 год. Агент ФБР Джо Пистоне получает новое задание: внедриться в одну из преступных группировок Бруклина с целью ... 10 10 8
Info! Золотая раздача, скачанное не засчитывается.
Торрент: Зарегистрирован [2015-04-13 06:58] · скачан: 102 раз
Статус: T временная
Размер: 7.75 GB
Как cкачать? Как скачать Донни Браско через торрент | qTorrent

% Раздел Тема Автор DL S | L
Фильмы [HD 720p, 1080p] (Хороший звук DUB, MVO) [ 27.66 GB ] Донни Браско / Donnie Brasco [1997 биография BDRip 1080p by msltel] 4 x MVO 2 x DVO 5 x AVO VO msltel Скачать
1 | 0
Фильмы [HD 720p, 1080p] (Хороший звук DUB, MVO) [ 9.65 GB ] Донни Браско / Donnie Brasco [1997 биография BDRip 720p by msltel] 4 x MVO 2 x DVO 5 x AVO VO msltel Скачать
2 | 0
Фильмы (Blu-ray, BD-Remux, HDDVD) [ 37.88 GB ] Донни Браско / Donnie Brasco [1997 BDRemux 1080p от HDClub] / Extended Cut / MVO DVO AVO Ю.Немахов Russian Mafia Скачать
1 | 0
Фильмы [HD 720p, 1080p] (Хороший звук DUB, MVO) [ 19.77 GB ] Донни Браско / Donnie Brasco [1997 BDRip 1080p Расширенная версия] 2xMVO + DVO + 2xAVO + Original + Sub Seedtank Скачать
1 | 0
Фильмы до 2000 г. [ 2.18 GB ] Донни Браско / Donnie Brasco [1997 биография BDRip] [Расширенная версия / Extended Cut] MVO sokol_ok Скачать
3 | 0

28-11-2019 20:33  

Отключить всю рекламу на сайте

13-04-2015 18:49 Донни Браско Скачать торрент  

норм норм фильмецpb.wtf



    Дорогой пользователь! Огромная просьба, поблагодарите релизера, оцените раздачу и оставьте свои комментарий, если Вы скачали Донни Браско через торрент бесплатно! Внесите свою лепту в развитие PiratBit!
    Комментировать посты могут только пользователи прошедшие не сложную регистрацию
    Показать сообщения:    

    Донни Браско через торрент
    Скачать бесплатно Донни Браско
    Донни Браско скачать торрент
    Донни Браско смотреть онлайн
    Cкачать фильм Донни Браско бесплатно
    Донни Браско скачать торрент в хорошем качестве
    Донни Браско смотреть онлайн бесплатно в хорошем качестве


    Вы не можете начинать темы
    Вы не можете отвечать на сообщения
    Вы не можете редактировать свои сообщения
    Вы не можете удалять свои сообщения
    Вы не можете голосовать в опросах
    Вы не можете прикреплять файлы к сообщениям
    Вы можете скачивать файлы