2 сезон

iTunes

MVO

1

2 сезон

iTunes

iTunes

1 сезон

RePack

30

Новинка

ВАЖНО

ИГРА 18+

pack

RePack

MK11
pack

Легкие деньги

RePack

jed

RePack

fifa19

RePack

RDR2

RePack

NEED FOR SPEED™ PAYBACK

4 сезон

9 сезон

Бесстыжие 9 сезон

Все сериалы

все сериалы на PB.wtf

RePack

FAR CRY 5

Anonymous, доброе утро, мы не успеваем собрать деньги на оплату серверов за декабрь и январь, помогите нам пожалуйста в это трудное время. В качестве благодарности мы отключим Вам всю рекламу на сайте (укажите свой ник в строку Ваше имя)!

×
  
Magnet ссылка

Танго и Кэш / Tango & Cash (Андрей Кончаловский, Альберт Магноли) [1989 г., боевик, триллер, комедия, криминал, BDRip 720p] (60 fps) Dub + Original Eng pb.wtf

Танго и Кэш через торрент pb.wtf

Размер: 4.65 GB | Добавлен: 5 лет 9 мес. назад | Торрент скачан:177 раз
Скачать  

13-04-2015 08:44 Танго и Кэш Скачать торрент  

Танго и Кэш / Tango & Cash
Год выпуска: 1989
Страна: США
Жанр: боевик, триллер, комедия, криминал
Продолжительность: 01:43:46
Перевод: Дубляж, Лицензия
Субтитры: Отсутствуют

Режиссер: Андрей Кончаловский, Альберт Магноли
Продюссер: Питер Губер, Джон Питерс, Ларри Дж. Франко
Сценарий: Рэнди Фельдман

Бюджет: $55 000 000
Премьера в мире: 22 декабря 1989

IMDB 6.30 (65 941)


В ролях: Сильвестр Сталлоне, Курт Рассел, Тери Хэтчер, Джек Пэланс, Брайон Джеймс, Джеймс Хонг, Марк Алаймо, Филип Тан, Майкл Дж. Поллард, Роберт З’Дар,

Роли дублировали: Дмитрий Матвеев, Леонид Белозорович, Елена Борзунова, Людмила Ильина, Борис Быстров

Описание: Герои фильма — Танго и Кэш. Эти соперничающие друг с другом копы обладают одной общей чертой: каждый думает, что он самый лучший, и каждый имеет бесспорные доказательства этого.

Качество: BDRip 720p / 60 Fps
Формат: MKV
Видео кодек: H.264
Аудио кодек: AC3
Видео: x264, 1280 x 536 (2,40:1), 5647 kbps, 59,880 fps, ( 0.137 bpp)
Аудио#1: AC-3, 48.0 KHz, 6 ch, 384 Kbps (Russian )
Аудио#2: AC-3, 48.0 KHz, 6 ch, 384 Kbps ( English )



скриншот   скриншот   скриншот   скриншот   скриншот   скриншот  Автор рипа: slaventi-69
Общее
Уникальный идентификатор : 215069099161220226103263594971329386564 (0xA1CCCD43FD7DFF449CCE496EBD26D844)
Полное имя : D:\ Tango & Cash.(1989).BDRip.720p.(60 Fps).mkv
Формат : Matroska
Версия формата : Version 4 / Version 2
Размер файла : 4,65 Гбайт
Продолжительность : 1 ч. 43 м.
Общий поток : 6414 Кбит/сек
Название фильма : Танго и Кэш / Tango & Cash (1989) BDRip 720p ( 60 Fps )
Дата кодирования : UTC 2015-04-13 07:57:28
Программа кодирования : mkvmerge v6.2.0 ('Promised Land') built on Apr 28 2013 12:22:01
Библиотека кодирования : libebml v1.3.0 + libmatroska v1.4.0

Видео
Идентификатор : 1
Формат : AVC
Формат/Информация : Advanced Video Codec
Профиль формата : High@L4.1
Параметр CABAC формата : Да
Параметр ReFrames формата : 4 кадра
Идентификатор кодека : V_MPEG4/ISO/AVC
Продолжительность : 1 ч. 43 м.
Битрейт : 5647 Кбит/сек
Ширина : 1280 пикселей
Высота : 536 пикселей
Соотношение сторон : 2,40:1
Режим частоты кадров : Постоянный
Частота кадров : 59,880 кадров/сек
Частота кадров в оригинале : 59,940 кадров/сек
Цветовое пространство : YUV
Субдискретизация насыщенности : 4:2:0
Битовая глубина : 8 бит
Тип развёртки : Прогрессивная
Бит/(Пиксели*Кадры) : 0.137
Размер потока : 4,00 Гбайт (86%)
Заголовок : Tango & Cash (1989) BDRip 720p ( 60 Fps ).mkv
Библиотека кодирования : x264 core 130 r2273 b3065e6
Настройки программы : cabac=1 / ref=4 / deblock=1:-1:-1 / analyse=0x3:0x113 / me=umh / subme=7 / psy=1 / psy_rd=1.00:0.10 / mixed_ref=1 / me_range=24 / chroma_me=1 / trellis=2 / 8x8dct=1 / cqm=0 / deadzone=21,11 / fast_pskip=1 / chroma_qp_offset=-3 / threads=3 / lookahead_threads=1 / sliced_threads=0 / nr=0 / decimate=1 / interlaced=0 / bluray_compat=0 / constrained_intra=0 / bframes=4 / b_pyramid=2 / b_adapt=2 / b_bias=0 / direct=3 / weightb=1 / open_gop=0 / weightp=2 / keyint=250 / keyint_min=25 / scenecut=40 / intra_refresh=0 / rc_lookahead=50 / rc=2pass / mbtree=1 / bitrate=5647 / ratetol=1.0 / qcomp=0.60 / qpmin=0 / qpmax=69 / qpstep=4 / cplxblur=20.0 / qblur=0.5 / ip_ratio=1.40 / aq=1:1.00
Язык : English
Default : Да
Forced : Нет

Аудио #1
Идентификатор : 2
Формат : AC-3
Формат/Информация : Audio Coding 3
Расширение режима : CM (complete main)
Параметр Endianness формата : Big
Идентификатор кодека : A_AC3
Продолжительность : 1 ч. 43 м.
Вид битрейта : Постоянный
Битрейт : 384 Кбит/сек
Каналы : 6 каналов
Расположение каналов : Front: L C R, Side: L R, LFE
Частота : 48,0 КГц
Битовая глубина : 16 бит
Метод сжатия : С потерями
Размер потока : 285 Мбайт (6%)
Язык : Russian
Default : Да
Forced : Нет

Аудио #2
Идентификатор : 3
Формат : AC-3
Формат/Информация : Audio Coding 3
Расширение режима : CM (complete main)
Параметр Endianness формата : Big
Идентификатор кодека : A_AC3
Продолжительность : 1 ч. 43 м.
Вид битрейта : Постоянный
Битрейт : 384 Кбит/сек
Каналы : 6 каналов
Расположение каналов : Front: L C R, Side: L R, LFE
Частота : 48,0 КГц
Битовая глубина : 16 бит
Метод сжатия : С потерями
Размер потока : 285 Мбайт (6%)
Язык : English
Default : Нет
Forced : Нет


Танго и Кэш скачать торрент


pb.wtf



Скачать Танго и Кэш через торрент https://pic.kartinco.top/images/11/7taoq.jpg Скачать фильм Танго и Кэш через торрент бесплантно в хорошем качестве Описание: Герои фильма — Танго и Кэш. Эти соперничающие друг с другом копы обладают одной общей чертой: каждый думает, что он самый лучший, ... 10 10 21
Info! Золотая раздача, скачанное не засчитывается.
Торрент: Зарегистрирован [2015-04-13 08:44] · скачан: 177 раз
Статус: √ проверено
Размер: 4.65 GB
Как cкачать? Как скачать Танго и Кэш через торрент | UTorrent

28-11-2019 20:33  

Отключить всю рекламу на сайте

13-04-2015 17:09 Танго и Кэш Скачать торрент  

один из любимых фильмов детства, как раз хотел пересмотреть, спасибо забираю)pb.wtf



16-04-2015 13:28 Танго и Кэш Скачать торрент  

slaventi-69, русская дорога не 6-ти канальная ( или очень плохие фронтальные каналы ), у оригинальной дороги все нормально,почему?pb.wtf



16-04-2015 13:31 Танго и Кэш Скачать торрент  

slaventi-69, Забыл, спасибо за фильм! Видео на "5", но хотелось бы 1080р.pb.wtf



15-12-2018 19:38 Танго и Кэш Скачать торрент  

Всем привет!Перезалейте пожалуйста фильм, а то не скачивается -буду благодарен! Заранее спасибо! Спасибо, что фильм начали раздавать, но скачалось только 35% и все - хотелось бы полностью фильм скачать!pb.wtf



16-12-2018 20:29 Танго и Кэш Скачать торрент  

Та же беда, скачал 35 и глушь. Кто может - раздайте до конца, пожалуйста.pb.wtf



23-12-2018 20:34 Танго и Кэш Скачать торрент  

Встаньте на раздачу плиз)pb.wtf



30-12-2018 04:12 Танго и Кэш Скачать торрент  

slaventi-69, На раздачу встаньте или перезалейте релиз, 35% скачал и стоитpb.wtf



    Дорогой пользователь! Огромная просьба, поблагодарите релизера, оцените раздачу и оставьте свои комментарий, если Вы скачали Танго и Кэш через торрент бесплатно! Внесите свою лепту в развитие PiratBit!
    Комментировать посты могут только пользователи прошедшие не сложную регистрацию
    Показать сообщения:    

    Танго и Кэш через торрент
    Скачать бесплатно Танго и Кэш
    Танго и Кэш скачать торрент
    Танго и Кэш смотреть онлайн
    Cкачать фильм Танго и Кэш бесплатно
    Танго и Кэш скачать торрент в хорошем качестве
    Танго и Кэш смотреть онлайн бесплатно в хорошем качестве


    Вы не можете начинать темы
    Вы не можете отвечать на сообщения
    Вы не можете редактировать свои сообщения
    Вы не можете удалять свои сообщения
    Вы не можете голосовать в опросах
    Вы не можете прикреплять файлы к сообщениям
    Вы можете скачивать файлы