Ссылка на приватное зеркало всего за 1$. Внимание количество ограничено!!!

iTunes

iTunes

iTunes

1

iTunes

iTunes

iTunes

iTunes

iTunes

30
pack

$ от Little Big

ВАЖНО

!!Акция!!

Alien_RageХит недели

RePack

Resident Evil 21

ИГРА 18+

pack

RePack

jed

!!Акция!!

Alien_Rage

RePack

fifa19

RePack

Assassins Creed: Odyssey

RePack

NEED FOR SPEED™ PAYBACK

4 сезон

9 сезон

Бесстыжие 9 сезон

Все сериалы

все сериалы на PB.wtf

RePack

FAR CRY 5
  

12 месяцев. Новая сказка (Денис Елеонский ) [2015, фэнтези, WEB-DLRip] pb.wtf

12 месяцев. Новая сказка через торрент pb.wtf

Размер: 1.37 GB | Добавлен: 5 лет 1 мес. назад | Торрент скачан:582 раза
Скачать  

13-04-2015 16:38 12 месяцев. Новая сказка Скачать торрент  

12 месяцев. Новая сказка

Год выпуска: 2015
Страна: Россия
Жанр: фэнтези
Продолжительность: 01:24:01
Перевод: Не требуется [лицензия / Тунец]
Режиссер: Денис Елеонский
В ролях: Ольга Налётова (Лиза), Илья Бутковский (Филипп), Евгений Воскресенский (Якоб), Юлия Такшина (Мартина), Марина Иванова (принцесса), Денис Ясик (Павел), Антон Юрьев (папа Лизы), Анастасия Мельникова (мама Лизы), Дмитрий Гогу (месяц март), Богдан Ступка (месяц декабрь), Сергей Друзьяк (месяц апрель), Владимир Кристовский (месяц август)
Описание:
Девочка из нашего времени попадает в сказочный мир. Среди зимы она должна принести из леса букет подснежников, чтобы наступил Новый Год, который решил отменить злой королевский советник. И только тогда она вернется к родителям.
Рейтинг:

Качество: WEB-DLRip
Формат: AVI
Видео кодек: XviD
Аудио кодек:AC3
Видео: XviD, 720x320 (2.25:1), 1935 kbps, 25 fps, 0,320 bpp
Аудио: AC3 / 5.1 / 48 kHz / 384 kbps / 16 bit

Код:

General
Complete name                            : D:\Торенты\12.mec1aceB.H0BaYa.Cka3ka.2015.O.WEB-DLRip.1400Mb.avi
Format                                   : AVI
Format/Info                              : Audio Video Interleave
File size                                : 1.37 GiB
Duration                                 : 1h 24mn
Overall bit rate                         : 2 330 Kbps
Writing application                      : VirtualDubMod 1.5.10.2 (build 2540/release)
Writing library                          : VirtualDubMod build 2540/release

Video
ID                                       : 0
Format                                   : MPEG-4 Visual
Format profile                           : Advanced Simple@L5
Format settings, BVOP                    : 2
Format settings, QPel                    : No
Format settings, GMC                     : No warppoints
Format settings, Matrix                  : Default (MPEG)
Codec ID                                 : XVID
Codec ID/Hint                            : XviD
Duration                                 : 1h 24mn
Bit rate                                 : 1935 Kbps
Width                                    : 720 pixels
Height                                   : 320 pixels
Display aspect ratio                     : 2.25:1
Frame rate                               : 25.000 fps
Color space                              : YUV
Chroma subsampling                       : 4:2:0
Bit depth                                : 8 bits
Scan type                                : Progressive
Compression mode                         : Lossy
Bits/(Pixel*Frame)                       : 0.320
Stream size                              : 1.08 GiB (79%)
Writing library                          : XviD 1.2.1 (UTC 2008-12-04)

Audio
ID                                       : 1
Format                                   : AC-3
Format/Info                              : Audio Coding 3
Mode extension                           : CM (complete main)
Codec ID                                 : 2000
Duration                                 : 1h 24mn
Bit rate mode                            : Constant
Bit rate                                 : 384 Kbps
Channel(s)                               : 6 channels
Channel positions                        : Front: L C R, Side: L R, LFE
Sampling rate                            : 48.0 KHz
Bit depth                                : 16 bits
Compression mode                         : Lossy
Stream size                              : 231 MiB (16%)
Alignment                                : Split accross interleaves

pb.wtf



Скачать 12 месяцев. Новая сказка через торрент http://i60.fastpic.ru/big/2015/0413/a0/45b1f3e2e8c62331383534699885aba0.jpg Скачать фильм 12 месяцев. Новая сказка через торрент бесплантно в хорошем качестве Описание: Девочка из нашего времени попадает в сказочный мир. Среди зимы она должна принести из леса букет подснежников, чтобы наступил ... 8.7 10 16
Торрент: Зарегистрирован [2015-04-13 16:38] · скачан: 582 раз
Статус: √ проверено
Размер: 1.37 GB
Как cкачать? Как скачать 12 месяцев. Новая сказка через торрент | qTorrent

% Раздел Тема Автор DL S | L
Наши фильмы (HD, WEB-DL 720p, 1080p) [ 3.34 GB ] 12 месяцев. Новая сказка [2015 WEB-DL 1080p] ninla Скачать
1 | 0

28-11-2019 20:33  

Отключить всю рекламу на сайте

13-04-2015 17:54 12 месяцев. Новая сказка Скачать торрент  

Ждём обзор от Badcomedian.pb.wtf



    Дорогой пользователь! Огромная просьба, поблагодарите релизера, оцените раздачу и оставьте свои комментарий, если Вы скачали 12 месяцев. Новая сказка через торрент бесплатно! Внесите свою лепту в развитие PiratBit!
    Комментировать посты могут только пользователи прошедшие не сложную регистрацию
    Показать сообщения:    

    12 месяцев. Новая сказка через торрент
    Скачать бесплатно 12 месяцев. Новая сказка
    12 месяцев. Новая сказка скачать торрент
    12 месяцев. Новая сказка смотреть онлайн
    Cкачать фильм 12 месяцев. Новая сказка бесплатно
    12 месяцев. Новая сказка скачать торрент в хорошем качестве
    12 месяцев. Новая сказка смотреть онлайн бесплатно в хорошем качестве


    Вы не можете начинать темы
    Вы не можете отвечать на сообщения
    Вы не можете редактировать свои сообщения
    Вы не можете удалять свои сообщения
    Вы не можете голосовать в опросах
    Вы не можете прикреплять файлы к сообщениям
    Вы можете скачивать файлы