2 сезон

iTunes

MVO

1

2 сезон

iTunes

iTunes

1 сезон

RePack

30

Новинка

ВАЖНО

ИГРА 18+

pack

RePack

MK11
pack

Легкие деньги

RePack

jed

RePack

fifa19

RePack

RDR2

RePack

NEED FOR SPEED™ PAYBACK

4 сезон

9 сезон

Бесстыжие 9 сезон

Все сериалы

все сериалы на PB.wtf

RePack

FAR CRY 5

Anonymous, доброй ночи, мы не успеваем собрать деньги на оплату серверов за декабрь и январь, помогите нам пожалуйста в это трудное время. В качестве благодарности мы отключим Вам всю рекламу на сайте (укажите свой ник в строку Ваше имя)!

×
  
Magnet ссылка

В поисках приключений / The Quest (Жан-Клод Ван Дамм) [1996 г., боевик, триллер, приключения, BDRip 720p, Профессиональный + Оригинал] (60 fps) pb.wtf

В поисках приключений через торрент pb.wtf

Размер: 4.22 GB | Добавлен: 5 лет 9 мес. назад | Торрент скачан:92 раза
Скачать  

14-04-2015 08:58 В поисках приключений Скачать торрент  

В поисках приключений / The Quest
Год выпуска: 1996
Страна: США, Канада
Жанр: боевик, триллер, приключения
Продолжительность: 01:34:35
Перевод: Профессиональный + Оригинал
Субтитры: Russian, English

Режиссер: Жан-Клод Ван Дамм
Продюссер: Моше Дайамант, Джейсон Кларк, Роберт Хэцки
Сценарий: Стивен Клейн, Пол Моунс, Фрэнк Дюкс

Бюджет: $30 000 000
Премьера в мире: 19 апреля 1996

IMDB 5.40 (16 403)



В ролях: Жан-Клод Ван Дамм, Роджер Мур, Джеймс Римар, Джанет Ганн, Джек МакГи, Аки Алеонг, Абдель Кисси, Луис Мэндилор, Чанг Чинг Пенг Чаплин, Райан Кутрона

Описание: Было время, когда в мире еще хватало места для пиратской резни, ловушек контрабандистов, работорговцев и древних тайн загадочного Востока. Когда настоящие мужчины могли отправиться на поиски невероятных приключений. Уличный преступник отправляется в путешествие в поисках своего прошлого и будущего.Его одиссея проходит через самые экзотические страны и живописнейшие уголки земного шара, от подворотен Нью-Йорка до загадочного волшебного тибетского Затерянного Города, где становится для него испытанием на честь и мужество в древних мифических состязаниях «Ган-генг» — боях до победного конца лучших бойцов со всего мира за обладание вожделенным призом — Золотым Драконом.


Качество: BDRip 720p / 60 Fps
Формат: MKV
Видео кодек: H.264
Аудио кодек: AC3
Видео: x264, 1280 x 544 (2,35:1), 5624 kbps, 59,880 fps, ( 0.135 bpp)
Аудио#1: AC-3, 48.0 KHz, 6 ch, 384 Kbps (Russian MVO)
Аудио#2: AC-3, 48.0 KHz, 6 ch, 384 Kbps ( English )



скриншот   скриншот   скриншот   скриншот   скриншот   скриншот  Автор рипа: slaventi-69
Общее
Уникальный идентификатор : 244891395939853683372145764044584928578 (0xB83C5E0482DE344CAAEFBA47B1B24542)
Полное имя : D:\ The.Quest.1996.BDRip.720.(60 Fps).mkv
Формат : Matroska
Версия формата : Version 4 / Version 2
Размер файла : 4,22 Гбайт
Продолжительность : 1 ч. 34 м.
Общий поток : 6393 Кбит/сек
Название фильма : В поисках приключений / The Quest (1996) BDRip 720 ( 60 Fps )
Дата кодирования : UTC 2015-04-14 07:01:01
Программа кодирования : mkvmerge v6.2.0 ('Promised Land') built on Apr 28 2013 12:22:01
Библиотека кодирования : libebml v1.3.0 + libmatroska v1.4.0

Видео
Идентификатор : 1
Формат : AVC
Формат/Информация : Advanced Video Codec
Профиль формата : High@L4.1
Параметр CABAC формата : Да
Параметр ReFrames формата : 4 кадра
Идентификатор кодека : V_MPEG4/ISO/AVC
Продолжительность : 1 ч. 34 м.
Битрейт : 5624 Кбит/сек
Ширина : 1280 пикселей
Высота : 544 пикселя
Соотношение сторон : 2,35:1
Режим частоты кадров : Постоянный
Частота кадров : 59,880 кадров/сек
Частота кадров в оригинале : 59,940 кадров/сек
Цветовое пространство : YUV
Субдискретизация насыщенности : 4:2:0
Битовая глубина : 8 бит
Тип развёртки : Прогрессивная
Бит/(Пиксели*Кадры) : 0.135
Размер потока : 3,63 Гбайт (86%)
Заголовок : The Quest (1996) BDRip 720 ( 60 Fps ).mkv
Библиотека кодирования : x264 core 130 r2273 b3065e6
Настройки программы : cabac=1 / ref=4 / deblock=1:0:0 / analyse=0x3:0x113 / me=umh / subme=7 / psy=1 / psy_rd=1.00:0.10 / mixed_ref=1 / me_range=24 / chroma_me=1 / trellis=2 / 8x8dct=1 / cqm=0 / deadzone=21,11 / fast_pskip=1 / chroma_qp_offset=-3 / threads=3 / lookahead_threads=1 / sliced_threads=0 / nr=0 / decimate=1 / interlaced=0 / bluray_compat=0 / constrained_intra=0 / bframes=4 / b_pyramid=2 / b_adapt=2 / b_bias=0 / direct=3 / weightb=1 / open_gop=0 / weightp=2 / keyint=250 / keyint_min=25 / scenecut=40 / intra_refresh=0 / rc_lookahead=50 / rc=2pass / mbtree=1 / bitrate=5624 / ratetol=1.0 / qcomp=0.60 / qpmin=0 / qpmax=69 / qpstep=4 / cplxblur=20.0 / qblur=0.5 / ip_ratio=1.40 / aq=1:1.00
Язык : English
Default : Да
Forced : Нет

Аудио #1
Идентификатор : 2
Формат : AC-3
Формат/Информация : Audio Coding 3
Расширение режима : CM (complete main)
Параметр Endianness формата : Big
Идентификатор кодека : A_AC3
Продолжительность : 1 ч. 34 м.
Вид битрейта : Постоянный
Битрейт : 384 Кбит/сек
Каналы : 6 каналов
Расположение каналов : Front: L C R, Side: L R, LFE
Частота : 48,0 КГц
Битовая глубина : 16 бит
Метод сжатия : С потерями
Задержка видео : 1 с. 0 мс.
Размер потока : 260 Мбайт (6%)
Заголовок : MVO
Язык : Russian
Default : Да
Forced : Нет

Аудио #2
Идентификатор : 3
Формат : AC-3
Формат/Информация : Audio Coding 3
Расширение режима : CM (complete main)
Параметр Endianness формата : Big
Идентификатор кодека : A_AC3
Продолжительность : 1 ч. 34 м.
Вид битрейта : Постоянный
Битрейт : 384 Кбит/сек
Каналы : 6 каналов
Расположение каналов : Front: L C R, Side: L R, LFE
Частота : 48,0 КГц
Битовая глубина : 16 бит
Метод сжатия : С потерями
Размер потока : 260 Мбайт (6%)
Заголовок : Original
Язык : English
Default : Нет
Forced : Нет

Текст #1
Идентификатор : 4
Формат : UTF-8
Идентификатор кодека : S_TEXT/UTF8
Идентификатор кодека/Информация : UTF-8 Plain Text
Заголовок : Rus
Язык : Russian
Default : Нет
Forced : Нет

Текст #2
Идентификатор : 5
Формат : UTF-8
Идентификатор кодека : S_TEXT/UTF8
Идентификатор кодека/Информация : UTF-8 Plain Text
Заголовок : Eng
Язык : English
Default : Нет
Forced : Нет

Меню
00:00:00.000 : :Chapter 01
00:03:02.306 : :Chapter 02
00:07:03.923 : :Chapter 03
00:14:49.888 : :Chapter 04
00:20:49.665 : :Chapter 05
00:27:52.504 : :Chapter 06
00:35:59.282 : :Chapter 07
00:40:10.074 : :Chapter 08
00:46:52.184 : :Chapter 09
00:52:59.384 : :Chapter 10
00:59:32.569 : :Chapter 11
01:09:12.857 : :Chapter 12
01:14:04.273 : :Chapter 13
01:21:10.740 : :Chapter 14
01:25:49.644 : :Chapter 15
01:29:48.299 : :Chapter 16
01:33:34.752 : :Chapter 17


В поисках приключений скачать торрент


pb.wtf



Скачать В поисках приключений через торрент http://pic.kartinco.top/images/11/c9lcz.jpg Скачать фильм В поисках приключений через торрент бесплантно в хорошем качестве Описание: Было время, когда в мире еще хватало места для пиратской резни, ловушек контрабандистов, работорговцев и древних тайн загадочного ... 10 10 12
Info! Золотая раздача, скачанное не засчитывается.
Торрент: Зарегистрирован [2015-04-14 08:58] · скачан: 92 раз
Статус: √ проверено
Размер: 4.22 GB
Как cкачать? Как скачать В поисках приключений через торрент | UTorrent

% Раздел Тема Автор DL S | L
Фильмы (Blu-ray, BD-Remux, HDDVD) [ 27.59 GB ] В поисках приключений / The Quest [1996 Blu-Ray Remux 1080p] 2xMVO+2xDVO+5xAVO bober100 Скачать
1 | 0
Фильмы до 2000 г. [ 1.45 GB ] В поисках приключений / The Quest [1996 BDRip] MVO gunk Скачать
1 | 0
Фильмы 2001-2005 [ 1.46 GB ] Библиотекарь: В поисках копья судьбы / The Librarian: Quest for the Spear [2004 BDRip MVO лицензия] Dean24 Скачать
1 | 0
Фильмы до 2000 г. [ 1.37 GB ] В поисках приключений / The Quest [1996 DVDRip] Jhamal Скачать
1 | 0
Иностранные мультфильмы [ 700 MB ] Динотопия: В поисках солнечного рубина / Dinotopia: Quest for the Ruby Sunstone [2005 мультфильм DVDRip] ACFIORENTINA Скачать
1 | 0

28-11-2019 20:33  

Отключить всю рекламу на сайте

06-08-2015 04:39 В поисках приключений Скачать торрент  

Вернитесь на раздачу пожалуйста.pb.wtf



12-08-2015 17:09 В поисках приключений Скачать торрент  

Что со скоростью?pb.wtf



    Дорогой пользователь! Огромная просьба, поблагодарите релизера, оцените раздачу и оставьте свои комментарий, если Вы скачали В поисках приключений через торрент бесплатно! Внесите свою лепту в развитие PiratBit!
    Комментировать посты могут только пользователи прошедшие не сложную регистрацию
    Показать сообщения:    

    В поисках приключений через торрент
    Скачать бесплатно В поисках приключений
    В поисках приключений скачать торрент
    В поисках приключений смотреть онлайн
    Cкачать фильм В поисках приключений бесплатно
    В поисках приключений скачать торрент в хорошем качестве
    В поисках приключений смотреть онлайн бесплатно в хорошем качестве


    Вы не можете начинать темы
    Вы не можете отвечать на сообщения
    Вы не можете редактировать свои сообщения
    Вы не можете удалять свои сообщения
    Вы не можете голосовать в опросах
    Вы не можете прикреплять файлы к сообщениям
    Вы можете скачивать файлы