Ссылка на приватное зеркало нашего сайта всего за 1$. Внимание количество ограничено!!!

2 сезон

iTunes

1 сезон

1

iTunes

iTunes

iTunes

1 сезон

RePack

30

ИГРА 18+

pack

ВАЖНО

!!Акция!!

Alien_RageХит недели

RePack

MK11
pack

Забери бонус

RePack

jed

!!Акция!!

Alien_Rage

RePack

fifa19

RePack

Assassins Creed: Odyssey

RePack

NEED FOR SPEED™ PAYBACK

4 сезон

9 сезон

Бесстыжие 9 сезон

Все сериалы

все сериалы на PB.wtf

RePack

FAR CRY 5
  

Человек, который плакал / The Man Who Cried (Салли Поттер) [2000, драма, мелодрама, военный, музыка, BDRip 1080p] 2 x MVO, AVO pb.wtf

Человек, который плакал через торрент pb.wtf

Размер: 12.79 GB | Добавлен: 5 лет 6 мес. назад | Торрент скачан:16 раз
Скачать  

14-04-2015 09:16 Человек, который плакал Скачать торрент  

Человек, который плакал / The Man Who Cried

Год выпуска: 2000
Страна: Великобритания, Франция
Жанр: драма, мелодрама, военный, музыка
Продолжительность: 01:40:28
Перевод: профессиональный многоголосый, авторский

Режиссёр: Салли Поттер

В ролях: Кристина Риччи, Кейт Бланшетт, Клаудия Лендер-Дюк, Джон Туртурро, Джонни Депп, Гарри Дин Стэнтон, Олег Янковский, Том Осборн, Фрэнк Черски, Дэниэл Харт, Питер Майер, Хана Мария Правда, Айала Мейр, Абрахам Хассан, Ллойд Мартин, Ури Мейр, Софи Ричманн

Описание: 1927 год. Обстоятельства разлучают семью из далёкой российской глубинки. Отец в поисках заработка эмигрирует в Америку, а малолетняя дочь, пытаясь найти его следы, волею судьбы вскоре оказывается в Христианском приюте в Англии. Здесь она получает новое имя, учится петь и забывает родной язык.Проходит много лет. И вот уже прелестная девушка, одарённая незабываемым красивым голосом, попадает в Париж. Колыбель любви и нежный возраст красавицы приносят свои плоды. Неизведанное чувство и первая страсть целиком захватывают доверчивую девушку. Но неожиданно безоблачное счастье разбивается начавшейся войной и нацистским вторжением. Покинув Париж, потеряв любимого человека и лучшую подругу, Сьюзи устремляется в Америку навстречу неизвестности. Встретит ли она наконец своего отца или же ей в очередной раз суждено остаться в одиночестве?...



Качество: BDRip 1080p Сравнение с исходником
Формат: MKV
Видео кодек: H.264
Аудио кодек: AC3, DTS
Видео: 14.2 Mбит/с, 1912x1072, 23,976 кадра/с
Аудио 1: русский, DTS, 1509 kbps, 6 ch, 48 kHz [профессиональный многоголосый, Карусель]
Аудио 2: русский, AC3, 448 kbps, 6 ch, 48 kHz [профессиональный многоголосый, CP Digital]
Аудио 3: русский, DTS, 1509 kbps, 6 ch, 48 kHz [авторский, Юрий Сербин]
Аудио 4: английский, AC3, 224 kbps, 6 ch, 48 kHz [оригинал]
Субтитры 1: русские
Субтитры 2: английские
Венецианский кинофестиваль, 2000 год
Номинации (1):
Золотой лев
frame I:947 Avg QP:15.67 size:187008
frame P:24957 Avg QP:17.58 size:113727
frame B:117786 Avg QP:20.17 size: 67493

Общее
Уникальный идентификатор : 241193447319876933697025784759585856113 (0xB5742B12FA683690B7CA32090C1FDA71)
Полное имя : D:VideoChelovek, kotoryj plakal.2000.BDRip.1080p.mkv
Формат : Matroska
Версия формата : Version 4 / Version 2
Размер файла : 12,8 Гбайт
Продолжительность : 1 ч. 40 м.
Общий поток : 18,2 Мбит/сек
Название фильма : BDRip -- STarankov
Дата кодирования : UTC 2015-04-14 00:40:30
Программа кодирования : mkvmerge v7.8.0 ('River Man') 64bit built on Mar 27 2015 16:31:37
Библиотека кодирования : libebml v1.3.1 + libmatroska v1.4.2
_STATISTICS_WRITING_APP : mkvmerge v7.8.0 ('River Man') 64bit built on Mar 27 2015 16:31:37
_STATISTICS_WRITING_DATE_UTC : 2015-04-14 00:40:30
_STATISTICS_TAGS : BPS DURATION NUMBER_OF_FRAMES NUMBER_OF_BYTES
DURATION : 01:39:54.080000000
NUMBER_OF_FRAMES : 561945
NUMBER_OF_BYTES : 1130633408

Видео
Идентификатор : 1
Формат : AVC
Формат/Информация : Advanced Video Codec
Профиль формата : High@L4.1
Параметр CABAC формата : Да
Параметр ReFrames формата : 4 кадра
Идентификатор кодека : V_MPEG4/ISO/AVC
Продолжительность : 1 ч. 40 м.
Битрейт : 14,2 Мбит/сек
Ширина : 1912 пикселей
Высота : 1072 пикселя
Соотношение сторон : 16:9
Режим частоты кадров : Постоянный
Частота кадров : 23,976 кадра/сек
Цветовое пространство : YUV
Субдискретизация насыщенности : 4:2:0
Битовая глубина : 8 бит
Тип развёртки : Прогрессивная
Бит/(Пиксели*Кадры) : 0.288
Размер потока : 9,95 Гбайт (78%)
Библиотека кодирования : x264 core 146 r2538 121396c
Настройки программы : cabac=1 / ref=4 / deblock=1:-1:-1 / analyse=0x3:0x113 / me=umh / subme=10 / psy=1 / psy_rd=1.00:0.15 / mixed_ref=1 / me_range=32 / chroma_me=1 / trellis=2 / 8x8dct=1 / cqm=0 / deadzone=21,11 / fast_pskip=1 / chroma_qp_offset=-3 / threads=6 / lookahead_threads=1 / sliced_threads=0 / nr=0 / decimate=1 / interlaced=0 / bluray_compat=0 / constrained_intra=0 / bframes=13 / b_pyramid=2 / b_adapt=2 / b_bias=0 / direct=1 / weightb=1 / open_gop=0 / weightp=2 / keyint=230 / keyint_min=23 / scenecut=40 / intra_refresh=0 / rc_lookahead=40 / rc=crf / mbtree=0 / crf=19.0 / qcomp=0.60 / qpmin=0 / qpmax=69 / qpstep=4 / vbv_maxrate=40000 / vbv_bufsize=50000 / crf_max=0.0 / nal_hrd=none / filler=0 / ip_ratio=1.40 / pb_ratio=1.30 / aq=1:1.00
Язык : English
Default : Да
Forced : Нет
DURATION : 01:39:53.071000000
NUMBER_OF_FRAMES : 143690
NUMBER_OF_BYTES : 10965173393
_STATISTICS_WRITING_APP : mkvmerge v7.8.0 ('River Man') 64bit built on Mar 27 2015 16:31:37
_STATISTICS_WRITING_DATE_UTC : 2015-04-14 00:40:30
_STATISTICS_TAGS : BPS DURATION NUMBER_OF_FRAMES NUMBER_OF_BYTES

Аудио #1
Идентификатор : 2
Формат : DTS
Формат/Информация : Digital Theater Systems
Режим : 16
Параметр Endianness формата : Big
Идентификатор кодека : A_DTS
Продолжительность : 1 ч. 40 м.
Вид битрейта : Постоянный
Битрейт : 1509 Кбит/сек
Каналы : 6 каналов
Расположение каналов : Front: L C R, Side: L R, LFE
Частота : 48,0 КГц
Битовая глубина : 16 бит
Метод сжатия : С потерями
Размер потока : 1,06 Гбайт (8%)
Заголовок : MVO (Карусель)
Язык : Russian
Default : Да
Forced : Нет

Аудио #2
Идентификатор : 3
Формат : AC-3
Формат/Информация : Audio Coding 3
Расширение режима : CM (complete main)
Параметр Endianness формата : Big
Идентификатор кодека : A_AC3
Продолжительность : 1 ч. 40 м.
Вид битрейта : Постоянный
Битрейт : 448 Кбит/сек
Каналы : 6 каналов
Расположение каналов : Front: L C R, Side: L R, LFE
Частота : 48,0 КГц
Битовая глубина : 16 бит
Метод сжатия : С потерями
Размер потока : 322 Мбайт (2%)
Заголовок : MVO (CP Digital)
Язык : Russian
Default : Нет
Forced : Нет

Аудио #3
Идентификатор : 4
Формат : DTS
Формат/Информация : Digital Theater Systems
Режим : 16
Параметр Endianness формата : Big
Идентификатор кодека : A_DTS
Продолжительность : 1 ч. 40 м.
Вид битрейта : Постоянный
Битрейт : 1509 Кбит/сек
Каналы : 6 каналов
Расположение каналов : Front: L C R, Side: L R, LFE
Частота : 48,0 КГц
Битовая глубина : 16 бит
Метод сжатия : С потерями
Размер потока : 1,06 Гбайт (8%)
Заголовок : AVO (Юрий Сербин)
Язык : Russian
Default : Нет
Forced : Нет

Аудио #4
Идентификатор : 5
Формат : AC-3
Формат/Информация : Audio Coding 3
Расширение режима : CM (complete main)
Параметр Endianness формата : Big
Идентификатор кодека : A_AC3
Продолжительность : 1 ч. 40 м.
Вид битрейта : Постоянный
Битрейт : 224 Кбит/сек
Каналы : 6 каналов
Расположение каналов : Front: L C R, Side: L R, LFE
Частота : 48,0 КГц
Битовая глубина : 16 бит
Метод сжатия : С потерями
Размер потока : 161 Мбайт (1%)
Заголовок : Original
Язык : English
Default : Нет
Forced : Нет

Текст #1
Идентификатор : 6
Формат : UTF-8
Идентификатор кодека : S_TEXT/UTF8
Идентификатор кодека/Информация : UTF-8 Plain Text
Заголовок : русские
Язык : Russian
Default : Нет
Forced : Нет

Текст #2
Идентификатор : 7
Формат : UTF-8
Идентификатор кодека : S_TEXT/UTF8
Идентификатор кодека/Информация : UTF-8 Plain Text
Заголовок : английские
Default : Нет
Forced : Нет
pb.wtf



Скачать Человек, который плакал через торрент http://i59.fastpic.ru/big/2015/0413/25/f0d4b82598fa184be851736adddfbd25.jpg Скачать фильм Человек, который плакал через торрент бесплантно в хорошем качестве Описание: 1927 год. Обстоятельства разлучают семью из далёкой российской глубинки. Отец в поисках заработка эмигрирует в Америку, а ... 5 10 1
Торрент: Зарегистрирован [2015-04-14 09:16] · скачан: 16 раз
Статус: √ проверено
Размер: 12.79 GB
Как cкачать? Как скачать Человек, который плакал через торрент | qTorrent

% Раздел Тема Автор DL S | L
Фильмы [HD 720p, 1080p] (Хороший звук DUB, MVO) [ 5.57 GB ] Человек который плакал / The Man Who Cried [2000 военный музыка BDRip 720p] 2 x MVO AVO msltel Скачать
1 | 0
Фильмы до 2000 г. [ 3.8 GB ] Человек который плакал / The Man Who Cried [2000 военный музыка BDRip-AVC] 2 x MVO AVO msltel Скачать
1 | 0

28-11-2019 20:33  

Отключить всю рекламу на сайте

    Дорогой пользователь! Огромная просьба, поблагодарите релизера, оцените раздачу и оставьте свои комментарий, если Вы скачали Человек, который плакал через торрент бесплатно! Внесите свою лепту в развитие PiratBit!
    Комментировать посты могут только пользователи прошедшие не сложную регистрацию
    Показать сообщения:    

    Человек, который плакал через торрент
    Скачать бесплатно Человек, который плакал
    Человек, который плакал скачать торрент
    Человек, который плакал смотреть онлайн
    Cкачать фильм Человек, который плакал бесплатно
    Человек, который плакал скачать торрент в хорошем качестве
    Человек, который плакал смотреть онлайн бесплатно в хорошем качестве


    Вы не можете начинать темы
    Вы не можете отвечать на сообщения
    Вы не можете редактировать свои сообщения
    Вы не можете удалять свои сообщения
    Вы не можете голосовать в опросах
    Вы не можете прикреплять файлы к сообщениям
    Вы можете скачивать файлы