Присоединяйтесь к нам в Telegram!, здесь всегда актуальный адрес сайта, оперативная поддержка и многое другое!!

>

5.9

iTunes

7.4

iTunes

9.4

1 сезон

1

7.4

2 сезон

7.2

iTunes

7.3

1 сезон

13

6.1

iTunes

8.3

GOG

30

ULTIMATE

pack

9.9

Лицензия

ВАЖНО

ИГРА 18+

pack

7.3

RePack

MK11

7.7

RePack

jed

7.8

RePack

fifa19

8.5

RePack

RDR2

RePack

NEED FOR SPEED™ PAYBACK

5 сезон

9 сезон

Бесстыжие 9 сезон

Все сериалы

все сериалы на PB.wtf

RePack

FAR CRY 5

Anonymous, доброй ночи, мы катастрофически не успеваем собрать деньги на оплату серверов, помогите нам пожалуйста 5,10,15р., для нас важна любая помощь . В качестве благодарности мы отключим Вам всю рекламу на сайте (укажите свой ник в строку Ваше имя)!

×
  
Magnet ссылка

Эти вкусные красивые девушки / These beautiful delicious girls vol.2 [2015 г., Adult erotic music clips, WEB-DLRip 720p, Оригинал] pb.wtf

Эти вкусные красивые девушки через торрент pb.wtf

Размер: 6.44 GB | Добавлен: 6 лет 7 мес. назад | Торрент скачан:378 раз
Смотреть онлайн Эти вкусные красивые девушки | Скачать    Ребята, помогите собрать деньги на оплату серверов!!!

14-04-2015 14:57 Эти вкусные красивые девушки Скачать торрент  

Эти вкусные красивые девушки / These beautiful delicious girls vol.2
Год выпуска: 2015
Страна: All World
Жанр: Adult erotic music clips
Продолжительность: 03:47:36
Перевод: Оригинал

Описание:

Красивые и просто сексуально эротические клипы с прекрасными девушками и чудесной музыкой.... vol.2
01. My Dream [03:25]
02. Solana - Zelediz [06:29]
03. Leila - Sampler Platter [04:20]
04. Irinab [07:26]
05. Tessa Fowler - Bikini [06:39]
06. Anhen [02:01]
07. I Like Summer [05:17]
08. Marilyn Manson - Wreckage [04:15]
09. Viola - Bail [06:10]
10. Sarika - Darzsarika [05:08]
11. Tessa Fowler - Car Wash [08:57]
12. Caress 1 (Sunset Sequence) [02:53]
13. Beautiful Buffy [06:12]
14. Astrud - Banho [05:11]
15. Caress 2 (Dream Sequence) [02:48]
16. Irina J - Kaciesta [05:06]
17. Kajira 4k [02:50]
18. Autumn Bodell [04:35]
19. Caress 3 (Temptation Sequence) [01:31]
20. Esperanza hard 1 [02:32]
21. Home made tatoo [03:50]
22. Jeff Milton - Personal J [04:15]
23. Whimsy - Pleasant Dreams [02:58]
24. Mila - Lampa [05:08]
25. Esperanza hard 2 [03:20]
26. Ralina Placiz [03:06]
27. Janelle and Taissia - Wanna [04:26]
28. Caress 5 (Pearl Sequence) [04:21]
29. Esperanza hard 3 [03:24]
30. Sybil - Release [04:15]
31. Astrud - Dancando [05:09]
32. Whimsy - Mesmerize Me [05:32]
33. Bodypainting Love Story [06:24]
34. Dancing GLITTER GIRLS [04:04]
35. Nikia - Weather With U [04:09]
36. Erotica [04:30]
37. PRVNTK - Nude [03:34]
38. Maria Lacerda - Projeto ElaCrua [04:32]
39. Esperanza hard 4 [03:32]
40. NoClue - Cali Girl ?[01:32]
41. Dreadlock Girl Plays Away [03:19]
42. Hot Russian Girls [03:04]
43. Zelda - Sawaru [06:08]
44. Dylan Phoenix [02:27]
45. Esperanza light [02:57]
46. Solana - Cant Wait [05:33]
47. Wildera - Night [05:10]
48. Viol Bailey [06:36]
49. Scaffolding - Beautiful model Susanne [06:31]
50. Viola Bailey Umbrella Dance 2 [11:50]
Качество: WEB-DLRip 720p
Формат: MP4
Видео кодек: H.264
Аудио кодек: AAC
Видео: AVC, 1280x720, 1920x1080 (16:9), 29.970 fps, 3 - 5 000 Kbps (0.080 bit/pixel)
Аудио#1: 44.1 KHz, 2 ch, 96.0 - 256 Kbps, CBR (VBR) (English)
скриншот   скриншот   скриншот   скриншот  
скриншот   скриншот   скриншот   скриншот   скриншот  

Общее
Полное имя : D:\Архив\Клипы\These beautiful delicious girls vol.2 (2015)\02. Solana - Zelediz.mp4
Формат : MPEG-4
Профиль формата : Base Media
Идентификатор кодека : isom
Размер файла : 237 Мбайт
Продолжительность : 6 м. 29 с.
Общий поток : 5108 Кбит/сек
Название фильма : EROTICASHARE.COM
Программа кодирования : Lavf55.49.100

Видео
Идентификатор : 1
Формат : AVC
Формат/Информация : Advanced Video Codec
Профиль формата : Baseline@L4.0
Параметр CABAC формата : Нет
Параметр ReFrames формата : 3 кадра
Идентификатор кодека : avc1
Идентификатор кодека/Информация : Advanced Video Coding
Продолжительность : 6 м. 29 с.
Битрейт : 5000 Кбит/сек
Ширина : 1920 пикселей
Высота : 1080 пикселей
Соотношение сторон : 16:9
Режим частоты кадров : Постоянный
Частота кадров : 29,970 кадров/сек
Цветовое пространство : YUV
Субдискретизация насыщенности : 4:2:0
Битовая глубина : 8 бит
Тип развёртки : Прогрессивная
Бит/(Пиксели*Кадры) : 0.080
Размер потока : 233 Мбайт (98%)
Библиотека кодирования : x264 core 142 r2 ea0ca51
Настройки программы : cabac=0 / ref=3 / deblock=1:0:0 / analyse=0x1:0x111 / me=hex / subme=7 / psy=1 / psy_rd=1.00:0.00 / mixed_ref=1 / me_range=16 / chroma_me=1 / trellis=1 / 8x8dct=0 / cqm=0 / deadzone=21,11 / fast_pskip=1 / chroma_qp_offset=-2 / threads=8 / lookahead_threads=1 / sliced_threads=0 / nr=0 / decimate=1 / interlaced=0 / bluray_compat=0 / constrained_intra=0 / bframes=0 / weightp=0 / keyint=250 / keyint_min=25 / scenecut=40 / intra_refresh=0 / rc_lookahead=40 / rc=abr / mbtree=1 / bitrate=5000 / ratetol=1.0 / qcomp=0.60 / qpmin=0 / qpmax=69 / qpstep=4 / ip_ratio=1.40 / aq=1:1.00
Язык : English

Аудио
Идентификатор : 2
Формат : AAC
Формат/Информация : Advanced Audio Codec
Профиль формата : LC
Идентификатор кодека : 40
Продолжительность : 6 м. 29 с.
Duration_LastFrame : -10 мс.
Вид битрейта : Постоянный
Битрейт : 96,0 Кбит/сек
Каналы : 2 канала
Расположение каналов : Front: L R
Частота : 44,1 КГц
Метод сжатия : С потерями
Размер потока : 4,45 Мбайт (2%)
Язык : English

Общее
Полное имя : D:\Архив\Клипы\These beautiful delicious girls vol.2 (2015)\03. Leila - Sampler Platter.mp4
Формат : MPEG-4
Профиль формата : Base Media / Version 2
Идентификатор кодека : mp42
Размер файла : 65,2 Мбайт
Продолжительность : 4 м. 20 с.
Режим общего битрейта : Переменный
Общий поток : 2102 Кбит/сек
Дата кодирования : UTC 2015-03-01 00:36:09
Дата пометки : UTC 2015-03-01 00:36:09

Видео
Идентификатор : 1
Формат : AVC
Формат/Информация : Advanced Video Codec
Профиль формата : High@L3.1
Параметр CABAC формата : Да
Параметр ReFrames формата : 4 кадра
Идентификатор кодека : avc1
Идентификатор кодека/Информация : Advanced Video Coding
Продолжительность : 4 м. 20 с.
Битрейт : 1938 Кбит/сек
Ширина : 1280 пикселей
Высота : 720 пикселей
Соотношение сторон : 16:9
Режим частоты кадров : Постоянный
Частота кадров : 29,970 кадров/сек
Цветовое пространство : YUV
Субдискретизация насыщенности : 4:2:0
Битовая глубина : 8 бит
Тип развёртки : Прогрессивная
Бит/(Пиксели*Кадры) : 0.070
Размер потока : 60,1 Мбайт (92%)
Библиотека кодирования : x264 core 144 r11 40bb568
Настройки программы : cabac=1 / ref=3 / deblock=1:0:0 / analyse=0x3:0x113 / me=hex / subme=7 / psy=1 / psy_rd=1.00:0.00 / mixed_ref=1 / me_range=16 / chroma_me=1 / trellis=1 / 8x8dct=1 / cqm=0 / deadzone=21,11 / fast_pskip=1 / chroma_qp_offset=-2 / threads=72 / lookahead_threads=5 / sliced_threads=0 / nr=0 / decimate=1 / interlaced=0 / bluray_compat=0 / stitchable=1 / constrained_intra=0 / bframes=3 / b_pyramid=2 / b_adapt=1 / b_bias=0 / direct=1 / weightb=1 / open_gop=0 / weightp=2 / keyint=infinite / keyint_min=29 / scenecut=40 / intra_refresh=0 / rc_lookahead=40 / rc=crf / mbtree=1 / crf=20.0 / qcomp=0.60 / qpmin=5 / qpmax=69 / qpstep=4 / vbv_maxrate=2750 / vbv_bufsize=7500 / crf_max=0.0 / nal_hrd=none / filler=0 / ip_ratio=1.40 / aq=1:1.00
Дата кодирования : UTC 2015-03-01 00:36:09
Дата пометки : UTC 2015-03-01 00:36:09
Основные цвета : BT.709
Характеристики трансфера : BT.709
Коэффициенты матрицы : BT.709

Аудио
Идентификатор : 2
Формат : AAC
Формат/Информация : Advanced Audio Codec
Профиль формата : LC
Идентификатор кодека : 40
Продолжительность : 4 м. 20 с.
Вид битрейта : Переменный
Битрейт : 160 Кбит/сек
Каналы : 2 канала
Расположение каналов : Front: L R
Частота : 48,0 КГц
Метод сжатия : С потерями
Размер потока : 4,96 Мбайт (8%)
Дата кодирования : UTC 2015-03-01 00:36:09
Дата пометки : UTC 2015-03-01 00:36:09

pb.wtf



Скачать Эти вкусные красивые девушки через торрент https://pic.kartinco.top/images/11/ss9qe.jpg Скачать, смотреть онлайн Эти вкусные красивые девушки бесплантно в хорошем качестве Описание: Красивые и просто сексуально эротические клипы с прекрасными девушками и чудесной музыкой.... vol.2 My Dream [03:25] Solana ... 9.5 10 23
Info! Золотая раздача, скачанное не засчитывается.
Торрент: Зарегистрирован [2015-04-14 14:57] · скачан: 378 раз
Статус: √ проверено
Размер: 6.44 GB
Как cкачать? Как скачать Эти вкусные красивые девушки через торрент | UTorrent

28-11-2019 20:33  

Отключить всю рекламу на сайте

14-04-2015 17:46 Эти вкусные красивые девушки Скачать торрент  

Цитата:

Красивые и просто сексуально эротические клипы с прекрасными девушками

к последнему скрину это тоже относится?pb.wtf



14-04-2015 18:11 Эти вкусные красивые девушки Скачать торрент  

блеванулpb.wtf



14-04-2015 21:02 Эти вкусные красивые девушки Скачать торрент  

На раздачу плизpb.wtf



    Дорогой пользователь! Огромная просьба, поблагодарите релизера, оцените раздачу и оставьте свои комментарий, если Вы скачали Эти вкусные красивые девушки через торрент бесплатно!
    Комментировать посты могут только пользователи прошедшие не сложную регистрацию
    Показать сообщения:    

    Эти вкусные красивые девушки через торрент
    Скачать бесплатно Эти вкусные красивые девушки
    Эти вкусные красивые девушки скачать торрент
    Эти вкусные красивые девушки смотреть онлайн
    Cкачать фильм Эти вкусные красивые девушки бесплатно
    Эти вкусные красивые девушки скачать торрент в хорошем качестве
    Эти вкусные красивые девушки смотреть онлайн бесплатно в хорошем качестве


    Вы не можете начинать темы
    Вы не можете отвечать на сообщения
    Вы не можете редактировать свои сообщения
    Вы не можете удалять свои сообщения
    Вы не можете голосовать в опросах
    Вы не можете прикреплять файлы к сообщениям
    Вы можете скачивать файлы