2 сезон

iTunes

MVO

1

2 сезон

iTunes

iTunes

1 сезон

RePack

30

Ultimate

ВАЖНО

ИГРА 18+

pack

RePack

MK11
pack

Легкие деньги

RePack

jed

RePack

fifa19

RePack

RDR2

RePack

NEED FOR SPEED™ PAYBACK

4 сезон

9 сезон

Бесстыжие 9 сезон

Все сериалы

все сериалы на PB.wtf

RePack

FAR CRY 5

Anonymous, доброй ночи, мы не успеваем собрать деньги на оплату серверов за декабрь и январь, помогите нам пожалуйста в это трудное время. В качестве благодарности мы отключим Вам всю рекламу на сайте (укажите свой ник в строку Ваше имя)!

×
  
Magnet ссылка

Гонка / Rush (Рон Ховард / Ron Howard) [2013, Драма, биография, спорт, BDRip-AVC] MVO [Омикрон] pb.wtf

Гонка через торрент pb.wtf

Размер: 2.18 GB | Добавлен: 5 лет 9 мес. назад | Торрент скачан:326 раз
Скачать  

16-04-2015 08:01 Гонка Скачать торрент  

Гонка / Rush
Год выпуска: 2013
Страна: США, Германия, Великобритания / Imagine Entertainment, Working Title Films, Action Concept Film- und Stuntproduktion, Cross Creek Pictures...
Жанр: Драма, биография, спорт
Продолжительность: 02:02:42
Перевод: Профессиональный (многоголосый) [Омикрон]
Субтитры: Русские, английские (Full, SDH, SDH-Colored)

Режиссер: Рон Ховард / Ron Howard

В ролях: Крис Хемсворт, Оливия Уайлд, Натали Дормер, Даниэль Брюль, Александра Мария Лара, Ли Асквит-Коу, Том Влашиха, Жозефин Де Ла Буме, Джулиан Сигер, Пьерфранческо Фавинос

Описание: 70-е годы XX века. Золотое время «Формулы-1»: обтекаемые формы гоночных машин, брутальные на треке и ранимые в обычной жизни гонщики, сексуальные поклонницы, литры шампанского на финише для победителя… Два непримиримых соперника в истории гонок — обаятельный плейбой-англичанин Джеймс Хант и дисциплинированный перфекционист-австриец Ники Лауда — доводят себя до предела физической и психологической выносливости ради триумфа на трассе. Для них нет легких путей к победе и права на ошибку. Единственный промах гонщикам может стоить карьеры и даже жизни.



Качество: BDRip-AVC
Формат: MKV
Видео кодек: H.264
Аудио кодек: AC3
Видео: 984x410 (2,40:1), 23,976 fps, 1651 Кbps, 0.171 bit/pixel
Аудио#1: 48 kHz, AC3 Dolby Digital, 3/2 (L,C,R,l,r) + LFE ch, 448.00 kbps | RUS
Аудио#2: 48 kHz, AC3 Dolby Digital, 3/2 (L,C,R,l,r) + LFE ch, 448.00 kbps | ENG

Релиз группы:
Автор рипа: potroks

Общее
Уникальный идентификатор : 229388946155436960681786277547940523049 (0xAC92B43B63D3D3EA8D382EDDE0E02C29)
Полное имя : Gonka.2013.DUAL.BDRip.x264.-HELLYWOOD.mkv
Формат : Matroska
Версия формата : Version 4 / Version 2
Размер файла : 2,18 Гбайт
Продолжительность : 2 ч. 2 м.
Общий поток : 2544 Кбит/сек
Название фильма : Rush (2013) - HELLYWOOD
Дата кодирования : UTC 2010-02-22 21:41:31
Программа кодирования : mkvmerge v5.8.0 ('No Sleep / Pillow') built on Sep 30 2012 10:57:14
Библиотека кодирования : libebml v1.3.0 + libmatroska v1.4.0

Видео
Идентификатор : 1
Формат : AVC
Формат/Информация : Advanced Video Codec
Профиль формата : High@L4.1
Параметр CABAC формата : Да
Параметр ReFrames формата : 12 кадров
Идентификатор кодека : V_MPEG4/ISO/AVC
Продолжительность : 2 ч. 2 м.
Битрейт : 1651 Кбит/сек
Ширина : 984 пикселя
Высота : 410 пикселей
Соотношение сторон : 2,40:1
Режим частоты кадров : Постоянный
Частота кадров : 23,976 кадра/сек
Цветовое пространство : YUV
Субдискретизация насыщенности : 4:2:0
Битовая глубина : 8 бит
Тип развёртки : Прогрессивная
Бит/(Пиксели*Кадры) : 0.171
Размер потока : 1,37 Гбайт (63%)
Заголовок : potroks
Библиотека кодирования : x264 core 130 r2273 b3065e6
Настройки программы : cabac=1 / ref=12 / deblock=1:-2:-2 / analyse=0x3:0x133 / me=umh / subme=11 / psy=1 / psy_rd=1.04:0.00 / mixed_ref=1 / me_range=48 / chroma_me=1 / trellis=2 / 8x8dct=1 / cqm=0 / deadzone=21,11 / fast_pskip=0 / chroma_qp_offset=-2 / threads=9 / lookahead_threads=6 / sliced_threads=0 / nr=0 / decimate=0 / interlaced=0 / bluray_compat=0 / constrained_intra=0 / bframes=13 / b_pyramid=2 / b_adapt=2 / b_bias=0 / direct=3 / weightb=1 / open_gop=0 / weightp=2 / keyint=250 / keyint_min=23 / scenecut=40 / intra_refresh=0 / rc_lookahead=60 / rc=2pass / mbtree=0 / bitrate=1651 / ratetol=1.0 / qcomp=0.70 / qpmin=0 / qpmax=69 / qpstep=4 / cplxblur=20.0 / qblur=0.5 / vbv_maxrate=20000 / vbv_bufsize=25000 / nal_hrd=none / ip_ratio=1.35 / pb_ratio=1.25 / aq=1:0.70
Язык : English
Default : Да
Forced : Нет

Аудио #1
Идентификатор : 2
Формат : AC-3
Формат/Информация : Audio Coding 3
Расширение режима : CM (complete main)
Параметр Endianness формата : Big
Идентификатор кодека : A_AC3
Продолжительность : 2 ч. 2 м.
Вид битрейта : Постоянный
Битрейт : 448 Кбит/сек
Каналы : 6 каналов
Расположение каналов : Front: L C R, Side: L R, LFE
Частота : 48,0 КГц
Битовая глубина : 16 бит
Метод сжатия : С потерями
Задержка видео : 4 с. 0 мс.
Размер потока : 393 Мбайт (18%)
Заголовок : MVO |DD 5.1 @ 448 kbps - Омикрон
Язык : Russian
Default : Да
Forced : Нет

Аудио #2
Идентификатор : 3
Формат : AC-3
Формат/Информация : Audio Coding 3
Расширение режима : CM (complete main)
Параметр Endianness формата : Big
Идентификатор кодека : A_AC3
Продолжительность : 2 ч. 2 м.
Вид битрейта : Постоянный
Битрейт : 448 Кбит/сек
Каналы : 6 каналов
Расположение каналов : Front: L C R, Side: L R, LFE
Частота : 48,0 КГц
Битовая глубина : 16 бит
Метод сжатия : С потерями
Размер потока : 393 Мбайт (18%)
Заголовок : Original | DD 5.1 @ 448 kbps
Язык : English
Default : Нет
Forced : Нет

Текст #1
Идентификатор : 4
Формат : UTF-8
Идентификатор кодека : S_TEXT/UTF8
Идентификатор кодека/Информация : UTF-8 Plain Text
Язык : Russian
Default : Нет
Forced : Нет

Текст #2
Идентификатор : 5
Формат : UTF-8
Идентификатор кодека : S_TEXT/UTF8
Идентификатор кодека/Информация : UTF-8 Plain Text
Заголовок : Full
Язык : English
Default : Нет
Forced : Нет

Текст #3
Идентификатор : 6
Формат : UTF-8
Идентификатор кодека : S_TEXT/UTF8
Идентификатор кодека/Информация : UTF-8 Plain Text
Заголовок : SDH-Colored
Язык : English
Default : Нет
Forced : Нет

Текст #4
Идентификатор : 7
Формат : UTF-8
Идентификатор кодека : S_TEXT/UTF8
Идентификатор кодека/Информация : UTF-8 Plain Text
Заголовок : SDH
Язык : English
Default : Нет
Forced : Нет

Меню
00:00:00.000 : en:(01)00:00:00:000
00:12:17.027 : en:(02)00:12:17:027
00:21:58.150 : en:(03)00:21:58:150
00:28:46.725 : en:(04)00:28:46:725
00:40:03.192 : en:(05)00:40:03:192
00:48:00.210 : en:(06)00:48:00:210
00:59:03.873 : en:(07)00:59:03:873
01:05:39.769 : en:(08)01:05:39:769
01:19:03.947 : en:(09)01:19:03:947
01:29:31.366 : en:(10)01:29:31:366
01:42:21.635 : en:(11)01:42:21:635
01:46:42.396 : en:(12)01:46:42:396

pb.wtf



Скачать Гонка через торрент https://pic.kartinco.top/images/11/trh9z.jpg Скачать фильм Гонка через торрент бесплантно в хорошем качестве Описание: 70-е годы XX века. Золотое время «Формулы-1»: обтекаемые формы гоночных машин, брутальные на треке и ранимые в обычной жизни ... 9.7 10 16
Торрент: Зарегистрирован [2015-04-16 08:01] · скачан: 326 раз
Статус: √ проверено
Размер: 2.18 GB
Как cкачать? Как скачать Гонка через торрент | UTorrent

% Раздел Тема Автор DL S | L
TNT serials [ 482 MB ] Наша Russia - Александр Родионович Бородач [2011 Юмористическое шоу SATRip Пиратка] Alex010484 Скачать
1 | 0
T Фильмы (мультфильмы) cо спонсором показа (Новинки AVI/MKV) [ 1.36 GB ] Большая гонка на Аляске / The Great Alaskan Race [2019 WEB-DLRip] MVO ["Синема УС"] bober100 Скачать
1 | 0
T Фильмы (мультфильмы) cо спонсором показа (Новинки AVI/MKV) [ 3.54 GB ] Большая гонка на Аляске / The Great Alaskan Race [2019 WEB-DL 720p] MVO ["Синема УС"] bober100 Скачать
1 | 0
Космос [ 713 MB ] Космическая гонка 21 века / The 21st Century Race for Space [2017 Документальный HDTVRip] Armstrong Скачать
1 | 0
Фильмы 2018 [DVDrip, WEB-DLRip, HDrip] (DUB, MVO) [ 1.46 GB ] Смертельная гонка 4: Вне анархии / Death Race 4: Beyond Anarchy [2018 BDRip] - [] Twi7ter Скачать
2 | 0
Фильмы [HD 720p, 1080p] (Хороший звук DUB, MVO) [ 4.33 GB ] Смертельная гонка 4: Вне анархии / Death Race 4: Beyond Anarchy [2018 BDRip-HEVC 1080p ] DUB [] bober100 Скачать
1 | 0
Фильмы (Blu-ray, BD-Remux, HDDVD) [ 38.82 GB ] Смертельная гонка 4: Вне анархии / Death Race 4: Beyond Anarchy [2018 Blu-Ray EUR 1080p ] Бумер Скачать
1 | 0

28-11-2019 20:33  

Отключить всю рекламу на сайте

16-04-2015 10:55 Гонка Скачать торрент  

Отличный фильм, слов нет)pb.wtf



17-04-2015 08:02 Гонка Скачать торрент  

ААААААААААААААААААААААААААААААААААААААААААААААААААААААААААААхуенный фильм!!!!!!!!!pb.wtf



19-04-2015 15:25 Гонка Скачать торрент  

Отличный фильм. Рекомендую.pb.wtf



    Дорогой пользователь! Огромная просьба, поблагодарите релизера, оцените раздачу и оставьте свои комментарий, если Вы скачали Гонка через торрент бесплатно! Внесите свою лепту в развитие PiratBit!
    Комментировать посты могут только пользователи прошедшие не сложную регистрацию
    Показать сообщения:    

    Гонка через торрент
    Скачать бесплатно Гонка
    Гонка скачать торрент
    Гонка смотреть онлайн
    Cкачать фильм Гонка бесплатно
    Гонка скачать торрент в хорошем качестве
    Гонка смотреть онлайн бесплатно в хорошем качестве


    Вы не можете начинать темы
    Вы не можете отвечать на сообщения
    Вы не можете редактировать свои сообщения
    Вы не можете удалять свои сообщения
    Вы не можете голосовать в опросах
    Вы не можете прикреплять файлы к сообщениям
    Вы можете скачивать файлы