Ссылка на приватное зеркало нашего сайта всего за 1$. Внимание количество ограничено!!!

2 сезон

iTunes

1 сезон

1

iTunes

iTunes

iTunes

1 сезон

RePack

30

ИГРА 18+

pack

ВАЖНО

!!Акция!!

Alien_RageХит недели

RePack

MK11
pack

Забери бонус

RePack

jed

!!Акция!!

Alien_Rage

RePack

fifa19

RePack

Assassins Creed: Odyssey

RePack

NEED FOR SPEED™ PAYBACK

4 сезон

9 сезон

Бесстыжие 9 сезон

Все сериалы

все сериалы на PB.wtf

RePack

FAR CRY 5
  

Тройной крест / Triple cross (Теренс Янг) [1966, боевик, триллер, драма, приключения, военный, BDRip 720p] MVO, VO pb.wtf

Тройной крест через торрент pb.wtf

Размер: 5.08 GB | Добавлен: 5 лет 6 мес. назад | Торрент скачан:43 раза
Скачать  

17-04-2015 07:11 Тройной крест Скачать торрент  

Тройной крест / Triple cross

Год выпуска: 1966
Страна: Великобритания, Франция
Жанр: боевик, триллер, драма, приключения, военный
Продолжительность: 01:57:22
Перевод: профессиональный многоголосый, любительский одноголосый

Режиссёр: Теренс Янг

В ролях: Кристофер Пламмер, Роми Шнайдер, Тревор Ховард, Герт Фрёбе, Клодин Оже, Юл Бриннер, Гарри Мейен, Жорж Ликан, Жес Ан, Джон Эбби, Жан-Клод Берк, Поль Бонифа, Жан-Роже Коссимон, Аннет Клодье, Жан Клодио, Пьер Колле, Энтони Досон, Жорж Дукен, Колин Дрэйк, Робер Фавар, Фред Фишер, Бернар Фрессон, Жизель Гримм, Харви Холл, Клеман Харари, Жак Арден, Дэвид Хатчесон, Марсель Журне, Ришар Ларк, Робер Ле Бил, Вайолетт Марсо, Ги Марли, Поль Менье, Шарль Милло, Юбер Ноэль, Жан Озенн, Марсель Рош

Описание: Учтивый, остроумный, смелый, красивый и крайне аморальный английский взломщик сейфов Эдди Чапмен берется за самые невероятные дела и с блеском их проводит. Он грабит дворцы и замки богатых вельмож с такой лёгкостью и выдумкой, что, кажется, любой желающий может сделать так же. Он ведёт красивую жизнь плейбоя, общается с самыми изысканными красавицами Старого и Нового Света, сорит деньгами и не думает о будущем. Он любит риск и острые ощущения по определению и не боится трудностей и опасностей. Но идёт Вторая мировая Война, и человек в таких исторических условиях не может полностью располагать собой. К удачливому грабителю Эдди Чапмену приходит посланник одной из секретных служб воюющих государств и делает предложение, от которого невозможно отказаться... Фильм по книге Фрэнка Оуэна "История Эдди Чапмена".



Качество: BDRip 720p
Формат: MKV
Видео кодек: H.264
Аудио кодек: AC3
Видео: 5238 Kбит/с, 1254x720, 25 кадра/с
Аудио 1: русский, AC3, 192 kbps, 2 ch, 48 kHz [профессиональный многоголосый]
Аудио 2: русский, AC3, 192 kbps, 2 ch, 48 kHz [любительский одноголосый]
Аудио 3: английский, AC3, 448 kbps, 6 ch, 48 kHz [оригинал]
frame I:1300 Avg QP:17.61 size: 78597
frame P:34717 Avg QP:18.93 size: 47518
frame B:140043 Avg QP:21.10 size: 21174

Общее
Уникальный идентификатор : 227157172400660858256541850915274163712 (0xAAE4E14A5BE05C5EB64F94DF7A630600)
Полное имя : D:VideoTrojnoj krest.1966.BDRip.720p.mkv
Формат : Matroska
Версия формата : Version 4 / Version 2
Размер файла : 5,08 Гбайт
Продолжительность : 1 ч. 57 м.
Общий поток : 6193 Кбит/сек
Название фильма : BDRip -- STarankov
Дата кодирования : UTC 2015-04-16 13:54:37
Программа кодирования : mkvmerge v7.8.0 ('River Man') 64bit built on Mar 27 2015 16:31:37
Библиотека кодирования : libebml v1.3.1 + libmatroska v1.4.2
_STATISTICS_WRITING_APP : mkvmerge v7.8.0 ('River Man') 64bit built on Mar 27 2015 16:31:37
_STATISTICS_WRITING_DATE_UTC : 2015-04-16 13:54:37
_STATISTICS_TAGS : BPS DURATION NUMBER_OF_FRAMES NUMBER_OF_BYTES
DURATION : 01:57:21.248000000
NUMBER_OF_FRAMES : 220039
NUMBER_OF_BYTES : 394309888

Видео
Идентификатор : 1
Формат : AVC
Формат/Информация : Advanced Video Codec
Профиль формата : High@L4.1
Параметр CABAC формата : Да
Параметр ReFrames формата : 9 кадров
Идентификатор кодека : V_MPEG4/ISO/AVC
Продолжительность : 1 ч. 57 м.
Битрейт : 5238 Кбит/сек
Ширина : 1254 пикселя
Высота : 720 пикселей
Соотношение сторон : 16:9
Режим частоты кадров : Постоянный
Частота кадров : 25,000 кадров/сек
Цветовое пространство : YUV
Субдискретизация насыщенности : 4:2:0
Битовая глубина : 8 бит
Тип развёртки : Прогрессивная
Бит/(Пиксели*Кадры) : 0.232
Размер потока : 4,29 Гбайт (85%)
Библиотека кодирования : x264 core 146 r2538 121396c
Настройки программы : cabac=1 / ref=9 / deblock=1:-1:-1 / analyse=0x3:0x113 / me=umh / subme=10 / psy=1 / psy_rd=1.00:0.15 / mixed_ref=1 / me_range=32 / chroma_me=1 / trellis=2 / 8x8dct=1 / cqm=0 / deadzone=21,11 / fast_pskip=1 / chroma_qp_offset=-3 / threads=6 / lookahead_threads=1 / sliced_threads=0 / nr=0 / decimate=1 / interlaced=0 / bluray_compat=0 / constrained_intra=0 / bframes=8 / b_pyramid=2 / b_adapt=2 / b_bias=0 / direct=1 / weightb=1 / open_gop=0 / weightp=2 / keyint=240 / keyint_min=24 / scenecut=40 / intra_refresh=0 / rc_lookahead=40 / rc=crf / mbtree=0 / crf=18.0 / qcomp=0.60 / qpmin=0 / qpmax=69 / qpstep=4 / vbv_maxrate=40000 / vbv_bufsize=50000 / crf_max=0.0 / nal_hrd=none / filler=0 / ip_ratio=1.40 / pb_ratio=1.30 / aq=1:1.00
Язык : English
Default : Да
Forced : Нет
DURATION : 01:57:22.400000000
NUMBER_OF_FRAMES : 176060
NUMBER_OF_BYTES : 4717129926
_STATISTICS_WRITING_APP : mkvmerge v7.8.0 ('River Man') 64bit built on Mar 27 2015 16:31:37
_STATISTICS_WRITING_DATE_UTC : 2015-04-16 13:54:37
_STATISTICS_TAGS : BPS DURATION NUMBER_OF_FRAMES NUMBER_OF_BYTES

Аудио #1
Идентификатор : 2
Формат : AC-3
Формат/Информация : Audio Coding 3
Расширение режима : CM (complete main)
Параметр Endianness формата : Big
Идентификатор кодека : A_AC3
Продолжительность : 1 ч. 57 м.
Вид битрейта : Постоянный
Битрейт : 192 Кбит/сек
Каналы : 2 канала
Расположение каналов : Front: L R
Частота : 48,0 КГц
Битовая глубина : 16 бит
Метод сжатия : С потерями
Размер потока : 161 Мбайт (3%)
Заголовок : MVO
Язык : Russian
Default : Да
Forced : Нет

Аудио #2
Идентификатор : 3
Формат : AC-3
Формат/Информация : Audio Coding 3
Расширение режима : CM (complete main)
Параметр Endianness формата : Big
Идентификатор кодека : A_AC3
Продолжительность : 1 ч. 57 м.
Вид битрейта : Постоянный
Битрейт : 192 Кбит/сек
Каналы : 2 канала
Расположение каналов : Front: L R
Частота : 48,0 КГц
Битовая глубина : 16 бит
Метод сжатия : С потерями
Размер потока : 161 Мбайт (3%)
Заголовок : VO (любительский)
Язык : Russian
Default : Нет
Forced : Нет

Аудио #3
Идентификатор : 4
Формат : AC-3
Формат/Информация : Audio Coding 3
Расширение режима : CM (complete main)
Параметр Endianness формата : Big
Идентификатор кодека : A_AC3
Продолжительность : 1 ч. 57 м.
Вид битрейта : Постоянный
Битрейт : 448 Кбит/сек
Каналы : 6 каналов
Расположение каналов : Front: L C R, Side: L R, LFE
Частота : 48,0 КГц
Битовая глубина : 16 бит
Метод сжатия : С потерями
Размер потока : 376 Мбайт (7%)
Заголовок : Original
Язык : English
Default : Нет
Forced : Нет
pb.wtf



Скачать Тройной крест через торрент http://i57.fastpic.ru/big/2015/0416/12/4ff7573fc1c2c1656a98fd74ef092e12.png Скачать фильм Тройной крест через торрент бесплантно в хорошем качестве Описание: Учтивый, остроумный, смелый, красивый и крайне аморальный английский взломщик сейфов Эдди Чапмен берется за самые невероятные ... 10 10 1
Info! Золотая раздача, скачанное не засчитывается.
Торрент: Зарегистрирован [2015-04-17 07:11] · скачан: 43 раз
Статус: √ проверено
Размер: 5.08 GB
Как cкачать? Как скачать Тройной крест через торрент | qTorrent

% Раздел Тема Автор DL S | L
Фильмы [HD 720p, 1080p] (Хороший звук DUB, MVO) [ 11.45 GB ] Тройной крест / Triple cross [1966 военный BDRip 1080p] MVO VO msltel Скачать
1 | 0
Фильмы до 2000 г. [ 3.49 GB ] Тройной крест / Triple cross [1966 военный BDRip-AVC] MVO VO msltel Скачать
1 | 0

28-11-2019 20:33  

Отключить всю рекламу на сайте

    Дорогой пользователь! Огромная просьба, поблагодарите релизера, оцените раздачу и оставьте свои комментарий, если Вы скачали Тройной крест через торрент бесплатно! Внесите свою лепту в развитие PiratBit!
    Комментировать посты могут только пользователи прошедшие не сложную регистрацию
    Показать сообщения:    

    Тройной крест через торрент
    Скачать бесплатно Тройной крест
    Тройной крест скачать торрент
    Тройной крест смотреть онлайн
    Cкачать фильм Тройной крест бесплатно
    Тройной крест скачать торрент в хорошем качестве
    Тройной крест смотреть онлайн бесплатно в хорошем качестве


    Вы не можете начинать темы
    Вы не можете отвечать на сообщения
    Вы не можете редактировать свои сообщения
    Вы не можете удалять свои сообщения
    Вы не можете голосовать в опросах
    Вы не можете прикреплять файлы к сообщениям
    Вы можете скачивать файлы