Ссылка на приватное зеркало нашего сайта всего за 1$. Внимание количество ограничено!!!

2 сезон

iTunes

1 сезон

1

iTunes

iTunes

iTunes

1 сезон

RePack

30

ИГРА 18+

pack

ВАЖНО

!!Акция!!

Alien_RageХит недели

RePack

MK11
pack

Забери бонус

RePack

jed

!!Акция!!

Alien_Rage

RePack

fifa19

RePack

Assassins Creed: Odyssey

RePack

NEED FOR SPEED™ PAYBACK

4 сезон

9 сезон

Бесстыжие 9 сезон

Все сериалы

все сериалы на PB.wtf

RePack

FAR CRY 5
  

Принуждение / Duress (Джордан Баркер) [2009, триллер, BDRip 720p] MVO pb.wtf

Принуждение через торрент pb.wtf

Размер: 2.39 GB | Добавлен: 5 лет 6 мес. назад | Торрент скачан:38 раз
Скачать  

17-04-2015 13:15 Принуждение Скачать торрент  

Принуждение / Duress

Год выпуска: 2009
Страна: США
Жанр: триллер
Продолжительность: 01:17:59
Перевод: профессиональный многоголосый

Режиссёр: Джордан Баркер

В ролях: Мартин Донован, Сакис Рувас, Ариэль Уинтер, Билли Уирт, Джина Галлего, Челси Смит, Джоуи Адамс, Коул С. МакКэй

Описание: Жена Ричарда покончила жизнь самоубийством. Он очень тяжело это переживает и пытается наладить отношения со своей дочерью. Однажды Ричард оказывается свидетелем нечеловеческой жестокости, проявленной неким Эбнером Солви. Тот решает не убивать Ричарда и даже делает его своим протеже. Теперь Ричарду приходится совершать убийства, иначе Эбнер убьет его дочь...



Качество: BDRip 720p Сравнение с исходником
Формат: MKV
Видео кодек: H.264
Аудио кодек: AC3
Видео: MPEG-4 AVC, 3653 Кбит/с, 1280x550, 24 кадра/с
Аудио 1: русский, AC3, 192 kbps, 2 ch, 48 kHz [профессиональный многоголосый, компания "Первый ТВЧ"]
Аудио 2: английский, AC3, 448 kbps, 6 ch, 48 kHz [оригинал]
frame I:785 Avg QP:15.73 size: 83788
frame P:20994 Avg QP:17.14 size: 39235
frame B:90518 Avg QP:19.07 size: 14356

Общее
Уникальный идентификатор : 224761759908361521954182675852547226833 (0xA9178A5616070568BD2A8344DB667CD1)
Полное имя : D:VideoPrinugdenie.2009.BDRip.720p.mkv
Формат : Matroska
Версия формата : Version 4 / Version 2
Размер файла : 2,39 Гбайт
Продолжительность : 1 ч. 17 м.
Общий поток : 4381 Кбит/сек
Название фильма : BDRip -- STarankov
Дата кодирования : UTC 2015-04-16 18:25:20
Программа кодирования : mkvmerge v7.8.0 ('River Man') 64bit built on Mar 27 2015 16:31:37
Библиотека кодирования : libebml v1.3.1 + libmatroska v1.4.2
DURATION : 01:17:59.040000000
NUMBER_OF_FRAMES : 146220
NUMBER_OF_BYTES : 262026240
_STATISTICS_WRITING_APP : mkvmerge v7.8.0 ('River Man') 64bit built on Mar 27 2015 16:31:37
_STATISTICS_WRITING_DATE_UTC : 2015-04-16 18:25:20
_STATISTICS_TAGS : BPS DURATION NUMBER_OF_FRAMES NUMBER_OF_BYTES

Видео
Идентификатор : 1
Формат : AVC
Формат/Информация : Advanced Video Codec
Профиль формата : High@L4.1
Параметр CABAC формата : Да
Параметр ReFrames формата : 9 кадров
Идентификатор кодека : V_MPEG4/ISO/AVC
Продолжительность : 1 ч. 17 м.
Битрейт : 3653 Кбит/сек
Ширина : 1280 пикселей
Высота : 550 пикселей
Соотношение сторон : 2,35:1
Режим частоты кадров : Постоянный
Частота кадров : 24,000 кадра/сек
Цветовое пространство : YUV
Субдискретизация насыщенности : 4:2:0
Битовая глубина : 8 бит
Тип развёртки : Прогрессивная
Бит/(Пиксели*Кадры) : 0.216
Размер потока : 1,99 Гбайт (83%)
Библиотека кодирования : x264 core 146 r2538 121396c
Настройки программы : cabac=1 / ref=9 / deblock=1:-1:-1 / analyse=0x3:0x113 / me=umh / subme=10 / psy=1 / psy_rd=1.00:0.15 / mixed_ref=1 / me_range=32 / chroma_me=1 / trellis=2 / 8x8dct=1 / cqm=0 / deadzone=21,11 / fast_pskip=1 / chroma_qp_offset=-3 / threads=6 / lookahead_threads=1 / sliced_threads=0 / nr=0 / decimate=1 / interlaced=0 / bluray_compat=0 / constrained_intra=0 / bframes=12 / b_pyramid=2 / b_adapt=2 / b_bias=0 / direct=1 / weightb=1 / open_gop=0 / weightp=2 / keyint=230 / keyint_min=23 / scenecut=40 / intra_refresh=0 / rc_lookahead=40 / rc=crf / mbtree=0 / crf=19.0 / qcomp=0.60 / qpmin=0 / qpmax=69 / qpstep=4 / vbv_maxrate=40000 / vbv_bufsize=50000 / crf_max=0.0 / nal_hrd=none / filler=0 / ip_ratio=1.40 / pb_ratio=1.30 / aq=1:1.00
Язык : English
Default : Да
Forced : Нет
DURATION : 01:17:59.042000000
NUMBER_OF_FRAMES : 112297
NUMBER_OF_BYTES : 2188952644
_STATISTICS_WRITING_APP : mkvmerge v7.8.0 ('River Man') 64bit built on Mar 27 2015 16:31:37
_STATISTICS_WRITING_DATE_UTC : 2015-04-16 18:25:20
_STATISTICS_TAGS : BPS DURATION NUMBER_OF_FRAMES NUMBER_OF_BYTES

Аудио #1
Идентификатор : 2
Формат : AC-3
Формат/Информация : Audio Coding 3
Расширение режима : CM (complete main)
Параметр Endianness формата : Big
Идентификатор кодека : A_AC3
Продолжительность : 1 ч. 17 м.
Вид битрейта : Постоянный
Битрейт : 192 Кбит/сек
Каналы : 2 канала
Расположение каналов : Front: L R
Частота : 48,0 КГц
Битовая глубина : 16 бит
Метод сжатия : С потерями
Размер потока : 107 Мбайт (4%)
Заголовок : MVO (компания "Первый ТВЧ")
Язык : Russian
Default : Да
Forced : Нет

Аудио #2
Идентификатор : 3
Формат : AC-3
Формат/Информация : Audio Coding 3
Расширение режима : CM (complete main)
Параметр Endianness формата : Big
Идентификатор кодека : A_AC3
Продолжительность : 1 ч. 17 м.
Вид битрейта : Постоянный
Битрейт : 448 Кбит/сек
Каналы : 6 каналов
Расположение каналов : Front: L C R, Side: L R, LFE
Частота : 48,0 КГц
Битовая глубина : 16 бит
Метод сжатия : С потерями
Размер потока : 250 Мбайт (10%)
Заголовок : Original
Язык : English
Default : Нет
Forced : Нет
pb.wtf



Скачать Принуждение через торрент http://i60.fastpic.ru/big/2015/0417/d0/dc555407dfe62a2fc5696d4be11280d0.jpg Скачать фильм Принуждение через торрент бесплантно в хорошем качестве Описание: Жена Ричарда покончила жизнь самоубийством. Он очень тяжело это переживает и пытается наладить отношения со своей дочерью. ... 7 10 3
Торрент: Зарегистрирован [2015-04-17 13:15] · скачан: 38 раз
Статус: √ проверено
Размер: 2.39 GB
Как cкачать? Как скачать Принуждение через торрент | qTorrent

% Раздел Тема Автор DL S | L
Фильмы [HD 720p, 1080p] (Хороший звук DUB, MVO) [ 8.07 GB ] Принуждение / Duress [2009 BDRip 1080p] MVO msltel Скачать
1 | 0
Фильмы 2009 [ 1.36 GB ] Принуждение / Duress [2009 BDRip-AVC] MVO msltel Скачать
1 | 0

28-11-2019 20:33  

Отключить всю рекламу на сайте

    Дорогой пользователь! Огромная просьба, поблагодарите релизера, оцените раздачу и оставьте свои комментарий, если Вы скачали Принуждение через торрент бесплатно! Внесите свою лепту в развитие PiratBit!
    Комментировать посты могут только пользователи прошедшие не сложную регистрацию
    Показать сообщения:    

    Принуждение через торрент
    Скачать бесплатно Принуждение
    Принуждение скачать торрент
    Принуждение смотреть онлайн
    Cкачать фильм Принуждение бесплатно
    Принуждение скачать торрент в хорошем качестве
    Принуждение смотреть онлайн бесплатно в хорошем качестве


    Вы не можете начинать темы
    Вы не можете отвечать на сообщения
    Вы не можете редактировать свои сообщения
    Вы не можете удалять свои сообщения
    Вы не можете голосовать в опросах
    Вы не можете прикреплять файлы к сообщениям
    Вы можете скачивать файлы