Ссылка на приватное зеркало нашего сайта всего за 1$. Внимание количество ограничено!!!

2 сезон

iTunes

1 сезон

1

iTunes

iTunes

iTunes

1 сезон

RePack

30

ИГРА 18+

pack

ВАЖНО

!!Акция!!

Alien_RageХит недели

RePack

MK11
pack

Забери бонус

RePack

jed

!!Акция!!

Alien_Rage

RePack

fifa19

RePack

Assassins Creed: Odyssey

RePack

NEED FOR SPEED™ PAYBACK

4 сезон

9 сезон

Бесстыжие 9 сезон

Все сериалы

все сериалы на PB.wtf

RePack

FAR CRY 5
  

Наводчица / Серии:1-4 из 4 (Ким Дружинин) [2015 г., Детектив, SATRip] pb.wtf

Наводчица через торрент pb.wtf

Размер: 2.14 GB | Добавлен: 5 лет 6 мес. назад | Торрент скачан:864 раза
Скачать  

17-04-2015 16:19 Наводчица Скачать торрент  

Наводчица Год выпуска: 2015
Страна: Россия "Триикс Медиа"
Жанр: Детектив
Продолжительность: 4 x ~ 00:45:00

Режиссер: Ким Дружинин
Продюссер: Инесса Юрченко, Сергей Щеглов

Премьера в мире: 17 апреля 2015 В ролях: Игорь Лифанов, Екатерина Новикова, Софья Карабулина, Олег Харитонов, Юлия Топольницкая, Алексей Ведерников (II), Ким Дружинин, Александр Куликов (III), Олег Малышев, Сергей Беспалов, Константин Фисенко, Сергей Бледных, Денис Пьянов, Андрей Павловец, Вадим Волков, Геннадий Морозов (II), Валентина Лебедева (II), Сергей Сидоренко (II), Максим Крупский, Гавриил Федотов

Описание: Бывший сотрудник полиции Игорь Калинин сменил профессию, но не убеждения. Он - охранник салона ювелирных украшений. Жизнь распорядилась так, что Игорю приходится одному воспитывать дочь-подростка. Но проблема отцов и детей коснулась и его. Однажды Игорь стал замечать у дочери Вики непозволительно дорогие вещи: мобильный телефон, украшения, одежду. Бывший полицейский заподозрил неладное. Дочь пыталась убедить отца, что все это ей подарили. Однако чутье Игоря не подводит. Оказалось, что Вика встречается с парнем, у которого проблемы с законом. Мало того, по Викиной наводке жених вместе с дружками совершает ограбления. Но однажды они ограбили очень серьезных людей. Теперь жизнь дочери зависит от Игоря...

Качество: SATRip
Формат: AVI
Видео кодек: XviD
Аудио кодек: AC3
Видео: Xvid 720x400, 25fps, 1 425 Kbps
Аудио: Dolby AC3, 48000Hz, stereo, 192kbps
Релиз от: wowa63Скриншотыскриншот  скриншот  скриншот  скриншот  скриншот  скриншот  




General
Complete name : E:\4006\Navodchitsa.2015.SATRip.Files-x\01.Navodchitsa.2015.SATRip.Files-x.avi
Format : AVI
Format/Info : Audio Video Interleave
File size : 541 MiB
Duration : 44mn 38s
Overall bit rate : 1 693 Kbps
Writing application : VirtualDubMod 1.5.10.2 (build 2542/release)
Writing library : VirtualDubMod build 2542/release

Video
ID : 0
Format : MPEG-4 Visual
Format profile : Advanced Simple@L5
Format settings, BVOP : 1
Format settings, QPel : No
Format settings, GMC : No warppoints
Format settings, Matrix : Custom
Codec ID : XVID
Codec ID/Hint : XviD
Duration : 44mn 38s
Bit rate : 1 492 Kbps
Width : 720 pixels
Height : 400 pixels
Display aspect ratio : 16:9
Frame rate : 25.000 fps
Color space : YUV
Chroma subsampling : 4:2:0
Bit depth : 8 bits
Scan type : Progressive
Compression mode : Lossy
Bits/(Pixel*Frame) : 0.207
Stream size : 476 MiB (88%)
Writing library : XviD 73

Audio
ID : 1
Format : AC-3
Format/Info : Audio Coding 3
Mode extension : CM (complete main)
Format settings, Endianness : Big
Codec ID : 2000
Duration : 44mn 38s
Bit rate mode : Constant
Bit rate : 192 Kbps
Channel(s) : 2 channels
Channel positions : Front: L R
Sampling rate : 48.0 KHz
Bit depth : 16 bits
Compression mode : Lossy
Stream size : 61.3 MiB (11%)
Alignment : Split accross interleaves
Interleave, duration : 40 ms (1.00 video frame)
Interleave, preload duration : 500 ms

pb.wtf



Скачать Наводчица через торрент http://pic.kartinco.top/images/11/qlhgg.jpg Скачать фильм Наводчица через торрент бесплантно в хорошем качестве Описание: Бывший сотрудник полиции Игорь Калинин сменил профессию, но не убеждения. Он - охранник салона ювелирных украшений. Жизнь ... 9.9 10 19
Торрент: Зарегистрирован [2015-04-17 16:19] · скачан: 864 раз
Статус: √ проверено
Размер: 2.14 GB
Как cкачать? Как скачать Наводчица через торрент | qTorrent

% Раздел Тема Автор DL S | L
Наши сериалы [ 2.41 GB ] Наводчица / Серии: 1-4 из 4 [2015 HDTVRip] bober100 Скачать
1 | 0
Наши сериалы [ 10.84 GB ] Наводчица / Серии: 1-4 из 4 [2015 HDTV 1080i] bober100 Скачать
1 | 0
Наши сериалы [ 2.28 GB ] Наводчица / Серии: 1-4 из 4 [2015 SATRip-AVC] bober100 Скачать
1 | 0


Последний раз редактировалось: lug30 (2015-04-17 16:45), всего редактировалось 1 раз

28-11-2019 20:33  

Отключить всю рекламу на сайте

17-04-2015 16:21 Наводчица Скачать торрент  

надо пересмотреть,только время дайтеpb.wtf



17-04-2015 18:23 Наводчица Скачать торрент  

Соломон Немни писал(а):

У "Дикого" дочка выросла и сменила имя?

Я заметил, у него куча Сериалов и фильмов, где он обязательно одинокий отэц и у него дочка, - обязалово молодая тупая тёлка. Уже стал героем одной и той же роли

да,что-то такое есть точно!pb.wtf



    Дорогой пользователь! Огромная просьба, поблагодарите релизера, оцените раздачу и оставьте свои комментарий, если Вы скачали Наводчица через торрент бесплатно! Внесите свою лепту в развитие PiratBit!
    Комментировать посты могут только пользователи прошедшие не сложную регистрацию
    Показать сообщения:    

    Наводчица через торрент
    Скачать бесплатно Наводчица
    Наводчица скачать торрент
    Наводчица смотреть онлайн
    Cкачать фильм Наводчица бесплатно
    Наводчица скачать торрент в хорошем качестве
    Наводчица смотреть онлайн бесплатно в хорошем качестве


    Вы не можете начинать темы
    Вы не можете отвечать на сообщения
    Вы не можете редактировать свои сообщения
    Вы не можете удалять свои сообщения
    Вы не можете голосовать в опросах
    Вы не можете прикреплять файлы к сообщениям
    Вы можете скачивать файлы