Ссылка на приватное зеркало нашего сайта всего за 1$. Внимание количество ограничено!!!

2 сезон

iTunes

1 сезон

1

iTunes

iTunes

iTunes

1 сезон

RePack

30

ИГРА 18+

pack

ВАЖНО

!!Акция!!

Alien_RageХит недели

RePack

MK11
pack

Забери бонус

RePack

jed

!!Акция!!

Alien_Rage

RePack

fifa19

RePack

Assassins Creed: Odyssey

RePack

NEED FOR SPEED™ PAYBACK

4 сезон

9 сезон

Бесстыжие 9 сезон

Все сериалы

все сериалы на PB.wtf

RePack

FAR CRY 5
  

Книга жизни / The Book of Life (Хорхе Р. Гутьеррес / Jorge R. Gutierrez) [2014, Мультфильм, фэнтези, мелодрама, комедия, BDRip-AVC] DUB Лицензия pb.wtf

Книга жизни через торрент pb.wtf

Размер: 1.47 GB | Добавлен: 5 лет 6 мес. назад | Торрент скачан:311 раз
Скачать  

18-04-2015 04:01 Книга жизни Скачать торрент  

Книга жизни / The Book of Life
Год выпуска: 2014
Страна: США / Twentieth Century Fox, Reel FX Creative Studios, Chatrone
Жанр: Мультфильм, фэнтези, мелодрама, комедия, приключения, семейный
Продолжительность: 01:35:27
Перевод: Дубляж [BD EUR]
Субтитры: Русские (полные + форс.)

Режиссер: Хорхе Р. Гутьеррес / Jorge R. Gutierrez

Роли озвучивали: Диего Луна, Зои Салдана, Ченнинг Татум, Рон Перлман, Кристина Эпплгейт, Айс Кьюб, Кейт дель Кастильо, Гектор Элизондо, Дэнни Трехо, Карлос Аласраки

Описание: В мультфильме описывается романтическая история любви на фоне празднования Дня мертвых в Мексике. Духи Ла Муэрте и Шибальба посещают городок Сан Анхель в День Мёртвых, где они заключают пари после того как встречают пару мальчишек, Маноло и Хоакина, которые хотят завоевать сердце Марии.



Качество: BDRip-AVC
Формат: MKV
Видео кодек: H.264
Аудио кодек: AC3
Видео: 900x376 (2,40:1), 23,976 fps, 1808 kbps, 0.223 bit/pixel
Аудио: 48 kHz, AC3 Dolby Digital, 3/2 (L,C,R,l,r) + LFE ch, 384.00 kbps

Релиз группы:
Автор рипа: potroks

Общее
Уникальный идентификатор : 172951646768407475811664866107217708895 (0x821D468A112A2A498CC340018394875F)
Полное имя : Kniga.Zhyzni.2014.RUS.BDRip.x264.-HELLYWOOD.mkv
Формат : Matroska
Версия формата : Version 4 / Version 2
Размер файла : 1,47 Гбайт
Продолжительность : 1 ч. 35 м.
Общий поток : 2212 Кбит/сек
Название фильма : The Book of Life (2014) - HELLYWOOD
Дата кодирования : UTC 2010-02-22 21:41:31
Программа кодирования : mkvmerge v5.8.0 ('No Sleep / Pillow') built on Sep 30 2012 10:57:14
Библиотека кодирования : libebml v1.3.0 + libmatroska v1.4.0

Видео
Идентификатор : 1
Формат : AVC
Формат/Информация : Advanced Video Codec
Профиль формата : High@L4.1
Параметр CABAC формата : Да
Параметр ReFrames формата : 12 кадров
Идентификатор кодека : V_MPEG4/ISO/AVC
Продолжительность : 1 ч. 35 м.
Битрейт : 1720 Кбит/сек
Номинальный битрейт : 1808 Кбит/сек
Ширина : 900 пикселей
Высота : 376 пикселей
Соотношение сторон : 2,40:1
Режим частоты кадров : Постоянный
Частота кадров : 23,976 кадра/сек
Цветовое пространство : YUV
Субдискретизация насыщенности : 4:2:0
Битовая глубина : 8 бит
Тип развёртки : Прогрессивная
Бит/(Пиксели*Кадры) : 0.212
Размер потока : 1,15 Гбайт (78%)
Заголовок : potroks
Библиотека кодирования : x264 core 130 r2273 b3065e6
Настройки программы : cabac=1 / ref=12 / deblock=1:-1:-1 / analyse=0x3:0x133 / me=umh / subme=11 / psy=1 / psy_rd=1.00:0.05 / mixed_ref=1 / me_range=48 / chroma_me=1 / trellis=2 / 8x8dct=1 / cqm=0 / deadzone=21,11 / fast_pskip=0 / chroma_qp_offset=-3 / threads=9 / lookahead_threads=6 / sliced_threads=0 / nr=0 / decimate=0 / interlaced=0 / bluray_compat=0 / constrained_intra=0 / bframes=13 / b_pyramid=2 / b_adapt=2 / b_bias=0 / direct=3 / weightb=1 / open_gop=0 / weightp=2 / keyint=250 / keyint_min=23 / scenecut=40 / intra_refresh=0 / rc_lookahead=60 / rc=2pass / mbtree=0 / bitrate=1808 / ratetol=1.0 / qcomp=0.70 / qpmin=0 / qpmax=69 / qpstep=4 / cplxblur=20.0 / qblur=0.5 / vbv_maxrate=50000 / vbv_bufsize=62500 / nal_hrd=none / ip_ratio=1.35 / pb_ratio=1.25 / aq=1:0.80
Язык : English
Default : Да
Forced : Нет

Аудио
Идентификатор : 2
Формат : AC-3
Формат/Информация : Audio Coding 3
Расширение режима : CM (complete main)
Параметр Endianness формата : Big
Идентификатор кодека : A_AC3
Продолжительность : 1 ч. 35 м.
Вид битрейта : Постоянный
Битрейт : 448 Кбит/сек
Каналы : 6 каналов
Расположение каналов : Front: L C R, Side: L R, LFE
Частота : 48,0 КГц
Битовая глубина : 16 бит
Метод сжатия : С потерями
Размер потока : 306 Мбайт (20%)
Заголовок : Dub | DD 5.1 @ 448 kbps - Blu-Ray EUR
Язык : Russian
Default : Да
Forced : Нет

Текст #1
Идентификатор : 3
Формат : UTF-8
Идентификатор кодека : S_TEXT/UTF8
Идентификатор кодека/Информация : UTF-8 Plain Text
Заголовок : форс.
Язык : Russian
Default : Да
Forced : Нет

Текст #2
Идентификатор : 4
Формат : UTF-8
Идентификатор кодека : S_TEXT/UTF8
Идентификатор кодека/Информация : UTF-8 Plain Text
Язык : Russian
Default : Нет
Forced : Нет

Меню
00:00:00.000 : en:(01)00:00:00:000
00:02:58.050 : en:(02)00:02:58:050
00:05:39.629 : en:(03)00:05:39:629
00:08:35.014 : en:(04)00:08:35:014
00:12:08.476 : en:(05)00:12:08:476
00:15:07.697 : en:(06)00:15:07:697
00:19:24.246 : en:(07)00:19:24:246
00:22:20.087 : en:(08)00:22:20:087
00:26:08.148 : en:(09)00:26:08:148
00:28:59.570 : en:(10)00:28:59:570
00:33:02.145 : en:(11)00:33:02:145
00:37:25.952 : en:(12)00:37:25:952
00:41:07.088 : en:(13)00:41:07:088
00:43:14.632 : en:(14)00:43:14:632
00:47:02.485 : en:(15)00:47:02:485
00:50:53.050 : en:(16)00:50:53:050
00:53:13.231 : en:(17)00:53:13:231
00:56:30.219 : en:(18)00:56:30:219
01:00:16.278 : en:(19)01:00:16:278
01:03:57.791 : en:(20)01:03:57:791
01:06:48.378 : en:(21)01:06:48:378
01:09:09.895 : en:(22)01:09:09:895
01:11:52.015 : en:(23)01:11:52:015
01:15:53.215 : en:(24)01:15:53:215
01:18:52.769 : en:(25)01:18:52:769
01:21:13.408 : en:(26)01:21:13:408
01:23:33.841 : en:(27)01:23:33:841
01:27:11.893 : en:(28)01:27:11:893
01:35:24.466 : en:(29)01:35:24:466

pb.wtf



Скачать Книга жизни через торрент http://pic.kartinco.top/images/11/4vb8i.jpg Скачать фильм Книга жизни через торрент бесплантно в хорошем качестве Описание: В мультфильме описывается романтическая история любви на фоне празднования Дня мертвых в Мексике. Духи Ла Муэрте и Шибальба ... 9.1 10 10
Торрент: Зарегистрирован [2015-04-18 04:01] · скачан: 311 раз
Статус: √ проверено
Размер: 1.47 GB
Как cкачать? Как скачать Книга жизни через торрент | qTorrent

28-11-2019 20:33  

Отключить всю рекламу на сайте

    Дорогой пользователь! Огромная просьба, поблагодарите релизера, оцените раздачу и оставьте свои комментарий, если Вы скачали Книга жизни через торрент бесплатно! Внесите свою лепту в развитие PiratBit!
    Комментировать посты могут только пользователи прошедшие не сложную регистрацию
    Показать сообщения:    

    Книга жизни через торрент
    Скачать бесплатно Книга жизни
    Книга жизни скачать торрент
    Книга жизни смотреть онлайн
    Cкачать фильм Книга жизни бесплатно
    Книга жизни скачать торрент в хорошем качестве
    Книга жизни смотреть онлайн бесплатно в хорошем качестве


    Вы не можете начинать темы
    Вы не можете отвечать на сообщения
    Вы не можете редактировать свои сообщения
    Вы не можете удалять свои сообщения
    Вы не можете голосовать в опросах
    Вы не можете прикреплять файлы к сообщениям
    Вы можете скачивать файлы