Всегда рабочее зеркало без VPN и Proxy просто перед .vidak.icu напиши любое слово или цифру, Пример http://5ppo.vidak.icu

iTunes

2 сезон

1 сезон

1

1 сезон

iTunes

2 сезон

13

1 сезон

Deluxe

pack

Рекомендуем

Пиратка

30

ВАЖНО

RePack

MK11

RePack

jed

RePack

fifa19

RePack

RDR2

RePack

NEED FOR SPEED™ PAYBACK

Кинопоиск HD

6 сезон

 Острые козырьки 6 сезон

Все сериалы

все сериалы на PB.wtf

RePack

FAR CRY 5

Anonymous, нам критически не хватает 5601 руб. на оплату серверов и переферии за Апрель, помоги нам пожалуйста, вся надежда только на тебя. В благодарность мы отключим тебе всю рекламу на сайте!

×
  
Magnet ссылка

Невероятный Бёрт Уандерстоун / The Incredible Burt Wonderstone (Дон Скардино) [2013, комедия, BDRip 720p] 2 x MVO, 2 x AVO pb.wtf

Невероятный Бёрт Уандерстоун через торрент pb.wtf

Размер: 4.54 GB | Добавлен: 7 лет 1 мес. назад | Торрент скачан:117 раз
Смотреть онлайн Невероятный Бёрт Уандерстоун | Скачать    Ребята, помогите собрать деньги на оплату серверов!!!

18-04-2015 06:32 Невероятный Бёрт Уандерстоун Скачать торрент  

Невероятный Бёрт Уандерстоун / The Incredible Burt Wonderstone

Год выпуска: 2013
Страна: США
Жанр: комедия
Продолжительность: 01:40:18
Перевод: профессиональный многоголосый, авторский

Режиссёр: Дон Скардино

В ролях: Стив Карелл, Стив Бушеми, Оливия Уайлд, Джим Керри, Джеймс Гандольфини, Алан Аркин, Джей Мор, Михаэль Хербиг, Мэйсон Кук, Люк Ванек, Захари Гордон, Брэд Гэррет, Фиона Хейл, Соня Эдди, Рон Остроу, Джошуа Эренберг, Рон Пирсон, Роберт Рэй Мэннинг мл., Джиллиан Джейкобс, Кристина Гаусас, Тейт Ханиок, Чарли Хартсок, Джон Фрэнсис Дейли, Фридом, Мелисса Ордвэй, Вэнс ДеДженерес, Мюррэй Гершенц, Джон Рубано, Брайсон Барретто, Форрест Вилер, Кимиа Сунь, Келли Срай, Оджи Исаак, Марк Энгельхардт, Дерек Граф, Джон Льюис, Дэниэл Спинк, Чад Калтген, Марселин Хьюго, Лени Ито, Джонатан М. Голдштейн, Тоссапорн Бэнкс

Описание: Фильм рассказывает историю двух фокусников-конкурентов в Лас-Вегасе. Бёрт Уандерстоун однажды во время исполнения номера лишается напарника и пытается вернуть себе мотивацию, чтоб вернуться к любимому занятию...



Качество: BDRip 720p Сравнение с исходником
Формат: MKV
Видео кодек: H.264
Аудио кодек: AC3
Видео: 4244 Kбит/с, 1280x534, 23,976 кадра/с
Аудио 1: русский, AC3, 448 kbps, 6 ch, 48 kHz [профессиональный многоголосый, BaiBako]
Аудио 2: русский, AC3, 448 kbps, 6 ch, 48 kHz [профессиональный многоголосый]
Аудио 3: русский, AC3, 384 kbps, 6 ch, 48 kHz [авторский, Андрей Дольский]
Аудио 4: русский, AC3, 384 kbps, 6 ch, 48 kHz [авторский, Антон Карповский]
Аудио 5: английский, AC3, 448 kbps, 6 ch, 48 kHz [оригинал]
Субтитры 1: русские (форсированные)
Субтитры 2: русские
Субтитры 3: английские
frame I:1573 Avg QP:17.43 size: 94824
frame P:28646 Avg QP:18.25 size: 44207
frame B:114070 Avg QP:20.48 size: 16411

Общее
Уникальный идентификатор : 250039947931078735631028607279421423982 (0xBC1BF13AA944DA77AF70FDAE92C3816E)
Полное имя : D:VideoNeverojatnyj Bert Uanderstoun.2013.BDRip.720p.mkv
Формат : Matroska
Версия формата : Version 4 / Version 2
Размер файла : 4,54 Гбайт
Продолжительность : 1 ч. 40 м.
Общий поток : 6485 Кбит/сек
Название фильма : BDRip -- STarankov
Дата кодирования : UTC 2015-04-17 14:10:08
Программа кодирования : mkvmerge v7.8.0 ('River Man') 64bit built on Mar 27 2015 16:31:37
Библиотека кодирования : libebml v1.3.1 + libmatroska v1.4.2
_STATISTICS_WRITING_APP : mkvmerge v7.8.0 ('River Man') 64bit built on Mar 27 2015 16:31:37
_STATISTICS_WRITING_DATE_UTC : 2015-04-17 14:10:08
_STATISTICS_TAGS : BPS DURATION NUMBER_OF_FRAMES NUMBER_OF_BYTES
DURATION : 01:39:41.915000000
NUMBER_OF_FRAMES : 1333
NUMBER_OF_BYTES : 50118

Видео
Идентификатор : 1
Формат : AVC
Формат/Информация : Advanced Video Codec
Профиль формата : High@L4.1
Параметр CABAC формата : Да
Параметр ReFrames формата : 9 кадров
Идентификатор кодека : V_MPEG4/ISO/AVC
Продолжительность : 1 ч. 40 м.
Битрейт : 4244 Кбит/сек
Ширина : 1280 пикселей
Высота : 534 пикселя
Соотношение сторон : 2,40:1
Режим частоты кадров : Постоянный
Частота кадров : 23,976 кадра/сек
Цветовое пространство : YUV
Субдискретизация насыщенности : 4:2:0
Битовая глубина : 8 бит
Тип развёртки : Прогрессивная
Бит/(Пиксели*Кадры) : 0.259
Размер потока : 2,97 Гбайт (65%)
Библиотека кодирования : x264 core 146 r2538 121396c
Настройки программы : cabac=1 / ref=9 / deblock=1:-1:-1 / analyse=0x3:0x113 / me=umh / subme=10 / psy=1 / psy_rd=1.00:0.15 / mixed_ref=1 / me_range=32 / chroma_me=1 / trellis=2 / 8x8dct=1 / cqm=0 / deadzone=21,11 / fast_pskip=1 / chroma_qp_offset=-3 / threads=6 / lookahead_threads=1 / sliced_threads=0 / nr=0 / decimate=1 / interlaced=0 / bluray_compat=0 / constrained_intra=0 / bframes=8 / b_pyramid=2 / b_adapt=2 / b_bias=0 / direct=1 / weightb=1 / open_gop=0 / weightp=2 / keyint=230 / keyint_min=23 / scenecut=40 / intra_refresh=0 / rc_lookahead=40 / rc=crf / mbtree=0 / crf=18.5 / qcomp=0.60 / qpmin=0 / qpmax=69 / qpstep=4 / vbv_maxrate=40000 / vbv_bufsize=50000 / crf_max=0.0 / nal_hrd=none / filler=0 / ip_ratio=1.40 / pb_ratio=1.30 / aq=1:1.00
Язык : English
Default : Да
Forced : Нет
DURATION : 01:40:18.054000000
NUMBER_OF_FRAMES : 144289
NUMBER_OF_BYTES : 3287537546
_STATISTICS_WRITING_APP : mkvmerge v7.8.0 ('River Man') 64bit built on Mar 27 2015 16:31:37
_STATISTICS_WRITING_DATE_UTC : 2015-04-17 14:10:08
_STATISTICS_TAGS : BPS DURATION NUMBER_OF_FRAMES NUMBER_OF_BYTES

Аудио #1
Идентификатор : 2
Формат : AC-3
Формат/Информация : Audio Coding 3
Расширение режима : CM (complete main)
Параметр Endianness формата : Big
Идентификатор кодека : A_AC3
Продолжительность : 1 ч. 40 м.
Вид битрейта : Постоянный
Битрейт : 448 Кбит/сек
Каналы : 6 каналов
Расположение каналов : Front: L C R, Side: L R, LFE
Частота : 48,0 КГц
Битовая глубина : 16 бит
Метод сжатия : С потерями
Размер потока : 321 Мбайт (7%)
Заголовок : MVO (BaiBako)
Язык : Russian
Default : Да
Forced : Нет

Аудио #2
Идентификатор : 3
Формат : AC-3
Формат/Информация : Audio Coding 3
Расширение режима : CM (complete main)
Параметр Endianness формата : Big
Идентификатор кодека : A_AC3
Продолжительность : 1 ч. 40 м.
Вид битрейта : Постоянный
Битрейт : 448 Кбит/сек
Каналы : 6 каналов
Расположение каналов : Front: L C R, Side: L R, LFE
Частота : 48,0 КГц
Битовая глубина : 16 бит
Метод сжатия : С потерями
Размер потока : 321 Мбайт (7%)
Заголовок : MVO
Язык : Russian
Default : Нет
Forced : Нет

Аудио #3
Идентификатор : 4
Формат : AC-3
Формат/Информация : Audio Coding 3
Расширение режима : CM (complete main)
Параметр Endianness формата : Big
Идентификатор кодека : A_AC3
Продолжительность : 1 ч. 40 м.
Вид битрейта : Постоянный
Битрейт : 384 Кбит/сек
Каналы : 6 каналов
Расположение каналов : Front: L C R, Side: L R, LFE
Частота : 48,0 КГц
Битовая глубина : 16 бит
Метод сжатия : С потерями
Размер потока : 275 Мбайт (6%)
Заголовок : AVO (Андрей Дольский)
Язык : Russian
Default : Нет
Forced : Нет

Аудио #4
Идентификатор : 5
Формат : AC-3
Формат/Информация : Audio Coding 3
Расширение режима : CM (complete main)
Параметр Endianness формата : Big
Идентификатор кодека : A_AC3
Продолжительность : 1 ч. 40 м.
Вид битрейта : Постоянный
Битрейт : 384 Кбит/сек
Каналы : 6 каналов
Расположение каналов : Front: L C R, Side: L R, LFE
Частота : 48,0 КГц
Битовая глубина : 16 бит
Метод сжатия : С потерями
Размер потока : 275 Мбайт (6%)
Заголовок : AVO (Антон Карповский)
Язык : Russian
Default : Нет
Forced : Нет

Аудио #5
Идентификатор : 6
Формат : AC-3
Формат/Информация : Audio Coding 3
Расширение режима : CM (complete main)
Параметр Endianness формата : Big
Идентификатор кодека : A_AC3
Продолжительность : 1 ч. 40 м.
Вид битрейта : Постоянный
Битрейт : 448 Кбит/сек
Каналы : 6 каналов
Расположение каналов : Front: L C R, Side: L R, LFE
Частота : 48,0 КГц
Битовая глубина : 16 бит
Метод сжатия : С потерями
Размер потока : 321 Мбайт (7%)
Заголовок : Original
Язык : English
Default : Нет
Forced : Нет

Текст #1
Идентификатор : 7
Формат : UTF-8
Идентификатор кодека : S_TEXT/UTF8
Идентификатор кодека/Информация : UTF-8 Plain Text
Заголовок : русские (форсированные)
Язык : Russian
Default : Да
Forced : Да

Текст #2
Идентификатор : 8
Формат : UTF-8
Идентификатор кодека : S_TEXT/UTF8
Идентификатор кодека/Информация : UTF-8 Plain Text
Заголовок : русские
Язык : Russian
Default : Нет
Forced : Нет

Текст #3
Идентификатор : 9
Формат : UTF-8
Идентификатор кодека : S_TEXT/UTF8
Идентификатор кодека/Информация : UTF-8 Plain Text
Заголовок : английские
Default : Нет
Forced : Нет
pb.wtf



Скачать Невероятный Бёрт Уандерстоун через торрент http://i59.fastpic.ru/big/2015/0416/37/58b219669abe9a45a11c28c5951a9337.jpg Скачать, смотреть онлайн Невероятный Бёрт Уандерстоун бесплантно в хорошем качестве Описание: Фильм рассказывает историю двух фокусников-конкурентов в Лас-Вегасе. Бёрт Уандерстоун однажды во время исполнения номера лишается ... 10 10 4
Торрент: Зарегистрирован [2015-04-18 06:32] · скачан: 117 раз
Статус: √ проверено
Размер: 4.54 GB
Как cкачать? Как скачать Невероятный Бёрт Уандерстоун через торрент | UTorrent

% Раздел Тема Автор DL S | L
Фильмы [HD 720p, 1080p] (Хороший звук DUB, MVO) [ 11.17 GB ] Невероятный Бёрт Уандерстоун / The Incredible Burt Wonderstone [2013 BDRip 1080p] 2 x MVO 2 x AVO msltel Скачать
1 | 0
Фильмы 2013 [DVDrip, WEB-DLRip, HDrip] [ 3.14 GB ] Невероятный Бёрт Уандерстоун / The Incredible Burt Wonderstone [2013 BDRip-AVC] 2 x MVO 2 x AVO msltel Скачать
1 | 0

28-11-2019 20:33  

Отключить всю рекламу на сайте

    Дорогой пользователь! Огромная просьба, поблагодарите релизера, оцените раздачу и оставьте свои комментарий, если Вы скачали Невероятный Бёрт Уандерстоун через торрент бесплатно!
    Комментировать посты могут только пользователи прошедшие не сложную регистрацию
    Показать сообщения:    

    Невероятный Бёрт Уандерстоун через торрент
    Скачать бесплатно Невероятный Бёрт Уандерстоун
    Невероятный Бёрт Уандерстоун скачать торрент
    Невероятный Бёрт Уандерстоун смотреть онлайн
    Cкачать фильм Невероятный Бёрт Уандерстоун бесплатно
    Невероятный Бёрт Уандерстоун скачать торрент в хорошем качестве
    Невероятный Бёрт Уандерстоун смотреть онлайн бесплатно в хорошем качестве


    Вы не можете начинать темы
    Вы не можете отвечать на сообщения
    Вы не можете редактировать свои сообщения
    Вы не можете удалять свои сообщения
    Вы не можете голосовать в опросах
    Вы не можете прикреплять файлы к сообщениям
    Вы можете скачивать файлы