Ссылка на приватное зеркало всего за 1$. Внимание количество ограничено!!!

iTunes

iTunes

iTunes

1

iTunes

iTunes

iTunes

iTunes

iTunes

30
pack

Новость дня

ВАЖНО

!!Акция!!

Alien_RageХит недели

RePack

Resident Evil 21

ИГРА 18+

pack

RePack

jed

!!Акция!!

Alien_Rage

RePack

fifa19

RePack

Assassins Creed: Odyssey

RePack

NEED FOR SPEED™ PAYBACK

4 сезон

9 сезон

Бесстыжие 9 сезон

Все сериалы

все сериалы на PB.wtf

RePack

FAR CRY 5
  

Духless 2 (Роман Прыгунов) [2015 г., драма, HDRip, Лицензия] pb.wtf

Духless 2 через торрент pb.wtf

Размер: 2.05 GB | Добавлен: 5 лет 1 мес. назад | Торрент скачан:1668 раз
Скачать  

18-04-2015 16:40 Духless 2 Скачать торрент  

Духless 2
Год выпуска: 2015
Страна: Россия / Art Pictures Studio, Kinoslovo
Жанр: драма
Продолжительность: 01:51:31
Тип релиза: Лицензия

Режиссер: Роман Прыгунов

IMDB 6.10 (215)


В ролях: Данила Козловский, Мария Андреева, Милош Бикович, Павел Ворожцов, Александра Бортич, Кристина Бабушкина, Сергей Бурунов, Лев Прыгунов, Владимир Симонов, Доминик Пинон

Описание: Он отказался от всего, что так когда-то ценил — светской жизни, успешной карьеры, роскошного пентхауса. Теперь его стихия — океан. Каждый день он рассекает на серфе теплые волны, омывающие остров Бали. Но невозможно забыть ритм большого города. Случайное знакомство возвращает его в самое сердце современной столицы — высокие технологии, сумасшедшие сделки, смертельный риск и прежняя любовь, которая больше не с ним.

Качество: HDRip
Формат: AVI
Видео кодек: XviD
Аудио кодек: AC3
Видео: 720x304 (2.37:1), 24.000 fps, XviD build 50 ~2175 kbps avg, 0.41 bit/pixel
Аудио: 48 kHz, AC3 Dolby Digital, 3/2 (L,C,R,l,r) + LFE ch, ~448 kbps

Общее
Полное имя : F:\кино\Духless 2.2015.HDRip.avi
Формат : AVI
Формат/Информация : Audio Video Interleave
Профиль формата : OpenDML
Размер файла : 2,05 Гбайт
Продолжительность : 1 ч. 51 м.
Общий поток : 2630 Кбит/сек
Программа кодирования : VirtualDubMod 1.5.10.3 | www.virtualdub-fr.org || (build 2550/release)
Библиотека кодирования : VirtualDubMod build 2550/release

Видео
Идентификатор : 0
Формат : MPEG-4 Visual
Профиль формата : Advanced Simple@L5
Параметр BVOP формата : 2
Параметр QPel формата : Нет
Параметр GMC формата : Без точки перехода
Параметр матрицы формата : Default (H.263)
Идентификатор кодека : XVID
Идентификатор кодека/Подсказка : XviD
Продолжительность : 1 ч. 51 м.
Битрейт : 2170 Кбит/сек
Ширина : 720 пикселей
Высота : 304 пикселя
Соотношение сторон : 2,35:1
Частота кадров : 24,000 кадра/сек
Цветовое пространство : YUV
Субдискретизация насыщенности : 4:2:0
Битовая глубина : 8 бит
Тип развёртки : Прогрессивная
Метод сжатия : С потерями
Бит/(Пиксели*Кадры) : 0.413
Размер потока : 1,69 Гбайт (82%)
Библиотека кодирования : XviD 1.2.1 (UTC 2008-12-04)

Аудио
Идентификатор : 1
Формат : AC-3
Формат/Информация : Audio Coding 3
Расширение режима : CM (complete main)
Параметр Endianness формата : Big
Идентификатор кодека : 2000
Продолжительность : 1 ч. 51 м.
Вид битрейта : Постоянный
Битрейт : 448 Кбит/сек
Каналы : 6 каналов
Расположение каналов : Front: L C R, Side: L R, LFE
Частота : 48,0 КГц
Битовая глубина : 16 бит
Метод сжатия : С потерями
Размер потока : 357 Мбайт (17%)
Выравнивание : Разделение по промежуткам
Продолжительность промежутка : 42 мс. (1,00 видеокадр)
Время предзагрузки промежутка : 500 мс.

pb.wtf



Скачать Духless 2 через торрент http://pic1.kartinco.top/images/10/2cw49.jpg Скачать фильм Духless 2 через торрент бесплантно в хорошем качестве Описание: Он отказался от всего, что так когда-то ценил — светской жизни, успешной карьеры, роскошного пентхауса. Теперь его стихия — ... 9.7 10 24
Торрент: Зарегистрирован [2015-04-18 16:40] · скачан: 1 668 раз
Статус: √ проверено
Размер: 2.05 GB
Как cкачать? Как скачать Духless 2 через торрент | qTorrent

% Раздел Тема Автор DL S | L
Наши фильмы (HD, WEB-DL 720p, 1080p) [ 4.37 GB ] ДухLess 2 [2015 BDRip HEVC 1080p] Мичман37 Скачать
1 | 0
Наши новые фильмы 2015 [ 1.46 GB ] Духless 2 [2015 Россия DVDRip] DEVI Скачать
1 | 0
Наши новые фильмы 2015 [ 1.46 GB ] ДухLess 2 [2015 DVDRip-AVC] Оригинал Бумер Скачать
1 | 0
Наши новые фильмы 2015 [ 738 MB ] Духless 2 [2015 DVDRip] khagkfgkahgaer Скачать
1 | 0
Наши фильмы (DVD фильмы) [ 5.93 GB ] Духless 2 [2015 DVD9] R5 voovaz Скачать
1 | 0

28-11-2019 20:33  

Отключить всю рекламу на сайте

27-04-2015 21:30 Духless 2 Скачать торрент  

1ч-17 минута эпик музыка РОССИИЙ ской эстрады покаряюший гипнозом весь мир. фильм натянут короче сыграл нормо только гл актер и то некоторые нелепые фразы КАК ВСЕГДА в рускиих сцерариях даже Аль пачино или дениро не обработает.на 1 раз выплюнутьpb.wtf



20-05-2015 03:59 Духless 2 Скачать торрент  

Ты сначала писать научись, школу окончи, а потом свои глупые комментарии пиши.pb.wtf



    Дорогой пользователь! Огромная просьба, поблагодарите релизера, оцените раздачу и оставьте свои комментарий, если Вы скачали Духless 2 через торрент бесплатно! Внесите свою лепту в развитие PiratBit!
    Комментировать посты могут только пользователи прошедшие не сложную регистрацию
    Показать сообщения:    

    Духless 2 через торрент
    Скачать бесплатно Духless 2
    Духless 2 скачать торрент
    Духless 2 смотреть онлайн
    Cкачать фильм Духless 2 бесплатно
    Духless 2 скачать торрент в хорошем качестве
    Духless 2 смотреть онлайн бесплатно в хорошем качестве


    Вы не можете начинать темы
    Вы не можете отвечать на сообщения
    Вы не можете редактировать свои сообщения
    Вы не можете удалять свои сообщения
    Вы не можете голосовать в опросах
    Вы не можете прикреплять файлы к сообщениям
    Вы можете скачивать файлы