Ссылка на приватное зеркало всего за 1$. Внимание количество ограничено!!!

iTunes

iTunes

iTunes

1

iTunes

iTunes

iTunes

iTunes

iTunes

30
pack

Новость дня

ВАЖНО

!!Акция!!

Alien_RageХит недели

RePack

Resident Evil 21

ИГРА 18+

pack

RePack

jed

!!Акция!!

Alien_Rage

RePack

fifa19

RePack

Assassins Creed: Odyssey

RePack

NEED FOR SPEED™ PAYBACK

4 сезон

9 сезон

Бесстыжие 9 сезон

Все сериалы

все сериалы на PB.wtf

RePack

FAR CRY 5
  

Камасутра 3D / Kamasutra 3D (Амир Эссади) [2012, документальный, эротика, BDRip-AVC] Оригинал, HalfSideBySide / Анаморфная горизонтальная стереопара pb.wtf

Камасутра 3D через торрент pb.wtf

Раздают: 2 [ 340 KB/s ]
Размер: 711 MB | Добавлен: 5 лет 1 мес. назад | Торрент скачан:1088 раз
Скачать  

18-04-2015 19:55 Камасутра 3D Скачать торрент  

Камасутра 3D / Kamasutra 3D
Год выпуска: 2012
Страна: Германия / Los Banditos Films
Жанр: документальный, эротика
Продолжительность: 00:47:10
Перевод: отсутствует - Оригинал
Язык: английский
Субтитры: отсутствуют

Режиссер: Амир Эссади

Премьера в мире: 23 апреля 2012



Описание: Никогда еще секс не был таким объемным! Впервые вы сможете не только почитать, но и посмотреть Камасутру В ФОРМАТЕ 3D! Ответы на вопросы, которые вы стеснялись задать. Любовные игры и позы, которые даже не приходили вам в голову. Техники, которые выведут вас на новый уровень. Это и многое другое подробно в книге и наглядно в невероятно красивом фильме в трехмерном изображении.

Качество: BDrip-AVC
Формат: MPEG-4
Формат 3D: HalfSideBySide / Горизонтальная анаморфная стереопара
Видео кодек: x264
Аудио кодек: AAC
Видео: 2009 Кбит/сек, 1920x1080, 23,976 кадра/сек
Аудио: 2 канала, 96 Кбит/сек, 48,0 КГц - английский






Формат: MPEG-4
Профиль формата : Base Media
Идентификатор кодека : isom
Размер файла : 711 Мбайт
Продолжительность : 47 м.
Режим общего битрейта : Переменный
Общий поток : 2107 Кбит/сек
Дата кодирования : UTC 2014-10-25 16:30:04
Дата пометки : UTC 2014-10-25 16:30:04

Видео
Идентификатор : 1
Формат : AVC
Формат/Информация : Advanced Video Codec
Профиль формата : High@L4.1
Параметр CABAC формата : Да
Параметр ReFrames формата : 4 кадра
Идентификатор кодека : avc1
Идентификатор кодека/Информация : Advanced Video Coding
Продолжительность : 47 м.
Битрейт : 2009 Кбит/сек
Максимальный битрейт : 4518 Кбит/сек
Ширина : 1920 пикселей
Высота : 1080 пикселей
Соотношение сторон : 16:9
Режим частоты кадров : Постоянный
Частота кадров : 23,976 кадра/сек
Цветовое пространство : YUV
Субдискретизация насыщенности : 4:2:0
Битовая глубина : 8 бит
Тип развёртки : Прогрессивная
Бит/(Пиксели*Кадры) : 0.040
Размер потока : 678 Мбайт (95%)
Библиотека кодирования : x264 core 142 r2431 ac76440
Настройки программы : cabac=1 / ref=4 / deblock=1:-1:-1 / analyse=0x3:0x113 / me=umh / subme=9 / psy=1 / psy_rd=1.00:0.15 / mixed_ref=1 / me_range=24 / chroma_me=1 / trellis=2 / 8x8dct=1 / cqm=0 / deadzone=21,11 / fast_pskip=0 / chroma_qp_offset=-3 / threads=12 / lookahead_threads=1 / sliced_threads=0 / nr=0 / decimate=1 / interlaced=0 / bluray_compat=0 / constrained_intra=0 / bframes=3 / b_pyramid=2 / b_adapt=2 / b_bias=0 / direct=3 / weightb=1 / open_gop=0 / weightp=2 / keyint=240 / keyint_min=23 / scenecut=40 / intra_refresh=0 / rc_lookahead=60 / rc=2pass / mbtree=1 / bitrate=2009 / ratetol=1.0 / qcomp=0.60 / qpmin=0 / qpmax=69 / qpstep=4 / cplxblur=20.0 / qblur=0.5 / vbv_maxrate=31250 / vbv_bufsize=31250 / nal_hrd=none / filler=0 / ip_ratio=1.40 / aq=1:1.00
Дата кодирования : UTC 2014-10-25 15:43:32
Дата пометки : UTC 2014-10-25 16:30:06
Основные цвета : BT.709
Коэффициенты матрицы : BT.709

Аудио
Идентификатор : 2
Формат : AAC
Формат/Информация : Advanced Audio Codec
Профиль формата : LC
Идентификатор кодека : 40
Продолжительность : 47 м.
Вид битрейта : Переменный
Битрейт : 93,4 Кбит/сек
Максимальный битрейт : 155 Кбит/сек
Каналы : 2 канала
Расположение каналов : Front: L R
Частота : 48,0 КГц
Метод сжатия : С потерями
Размер потока : 31,5 Мбайт (4%)
Дата кодирования : UTC 2014-10-25 16:30:05
Дата пометки : UTC 2014-10-25 16:30:06


Камасутра 3D / Kamasutra 3D скачать торрент


pb.wtf



pack Скачать Камасутра 3D через торрент http://i48.fastpic.ru/big/2015/0418/9a/7b3ff8b70fcf3bd3fba54877185b099a.jpg Скачать фильм Камасутра 3D через торрент бесплантно в хорошем качестве Описание: Никогда еще секс не был таким объемным! Впервые вы сможете не только почитать, но и посмотреть Камасутру В ФОРМАТЕ 3D! Ответы на ... 8.6 10 30
Торрент: Зарегистрирован [2015-04-18 19:55] · скачан: 1 088 раз
Статус: √ проверено
Размер: 711 MB
Как cкачать? Как скачать Камасутра 3D через торрент | qTorrent



Последний раз редактировалось: makarevich (2015-04-19 11:29), всего редактировалось 1 раз

28-11-2019 20:33  

Отключить всю рекламу на сайте

19-04-2015 02:50 Камасутра 3D Скачать торрент  

в порнуху эту раздачу nopb.wtf



pack

19-04-2015 11:58 Камасутра 3D Скачать торрент  

shurgan1980
порно здесь даже не пахнет.
красивая эротика, красивые актёры -
скорее обучающее видео для молодых пар и не только...
не зря же на IMDb рейтинг 5,1
pb.wtf



pack

19-04-2015 14:01 Камасутра 3D Скачать торрент  

А есть с переводом?pb.wtf



pack

19-04-2015 15:13 Камасутра 3D Скачать торрент  

С переводом пока нет,
ждём любительскую озвучку...pb.wtf



pack

19-04-2015 18:45 Камасутра 3D Скачать торрент  

makarevich писал(а):

С переводом пока нет,
ждём любительскую озвучку...

Когда будет с переводом напишешь СМС? Пожалуйстаpb.wtf



pack

20-04-2015 19:06 Камасутра 3D Скачать торрент  

могу субтитры srt перевести и добавить с названием поз
winkpb.wtf



pack
    Дорогой пользователь! Огромная просьба, поблагодарите релизера, оцените раздачу и оставьте свои комментарий, если Вы скачали Камасутра 3D через торрент бесплатно! Внесите свою лепту в развитие PiratBit!
    Комментировать посты могут только пользователи прошедшие не сложную регистрацию
    Показать сообщения:    

    Камасутра 3D через торрент
    Скачать бесплатно Камасутра 3D
    Камасутра 3D скачать торрент
    Камасутра 3D смотреть онлайн
    Cкачать фильм Камасутра 3D бесплатно
    Камасутра 3D скачать торрент в хорошем качестве
    Камасутра 3D смотреть онлайн бесплатно в хорошем качестве


    Вы не можете начинать темы
    Вы не можете отвечать на сообщения
    Вы не можете редактировать свои сообщения
    Вы не можете удалять свои сообщения
    Вы не можете голосовать в опросах
    Вы не можете прикреплять файлы к сообщениям
    Вы можете скачивать файлы