Ссылка на приватное зеркало нашего сайта всего за 1$. Внимание количество ограничено!!!

2 сезон

iTunes

1 сезон

1

2 сезон

2 сезон

iTunes

1 сезон

RePack

30

Ultimate

ВАЖНО

ИГРА 18+

pack

RePack

MK11
pack

Забери бонус

RePack

jed

!!Акция!!

Alien_Rage

RePack

fifa19

RePack

Assassins Creed: Odyssey

RePack

NEED FOR SPEED™ PAYBACK

4 сезон

9 сезон

Бесстыжие 9 сезон

Все сериалы

все сериалы на PB.wtf

RePack

FAR CRY 5
  

Посланники / The Messengers / Сезон: 1 / Серии 1-13 из 13 (Дуан Кларк / Duane Clark, Гай Норман Би / Guy Norman Bee, Джеймс Л. Конуэй / James L. Conway) [2015, США, фантастика, WEB-DLRip-AVC, MVO] [BaibaKo] pb.wtf

Посланники через торрент pb.wtf

Размер: 6.9 GB | Добавлен: 5 лет 4 мес. назад | Торрент скачан:256 раз
Скачать  

19-04-2015 03:59 Посланники Скачать торрент  

Посланники / The Messengers


  • Год выпуска: 2015
  • Страна: США
  • Жанр: фантастика
  • Продолжительность: 00:42:02 (Серия)
  • Перевод: Профессиональный многоголосый закадровый) [BaibaKo]

  • Режиссер: Дуан Кларк / Duane Clark, Гай Норман Би / Guy Norman Bee, Джеймс Л. Конуэй / James L. Conway
  • В ролях:

    Шантель Ван Сантен (Vera Buckley), София Блэк-Д’Элиа (Erin), Джоэл Кортни (Peter Moore), Дж.Д. Пардо (Raul Garcia), Джон Флетчер (Joshua Silburn Jr), Анна Диоп (Rose Arvale), Диого Моргадо (The Man), Уэйлон Брэйди, Madison Dellamea (Amy), Бриттани О’Грэйди (Nadia), Сэм Литтлфилд (Leland Schiller), Джессика Ван (Koa Lin)

  • Описание:
    Когда таинственный объект падает на Землю, несколько незнакомцев умирают от энергетического импульса - но затем просыпаются и узнают, что ответственны за предотвращение грядущего Апокалипсиса.
  • Рейтинг:



  • Качество: WEB-DLRip-AVC
  • Формат: :MPEG-4
  • Видео кодек: AVC
  • Аудио кодек: AAC LC
  • Видео: 720x400 (16:9), 1536 kbps, 23,976 fps, 0,222 bpp
  • Аудио №1: русский / 2.0 / 48 kHz / 162 kbps
  • Аудио №2: английский / 2.0 / 48 kHz / 162 kbps
  • Релиз от: GEKADOL

    Код:

    Внимание! Раздача ведётся путём добавления новых серий; при каждом добавлении создаётся новый торрент. Чтобы начать докачку новой серии, пользователям необходимо сделать следующее:
    (1) остановить скачивание,
    (2) удалить старый торрент у себя из клиента (старые серии удалять не надо),
    (3) скачать новый торрент и запустить его у себя в клиенте вместо старого, при этом указать клиенту путь в старую папку куда и должно происходить скачивание новых серий.
    Ваш клиент при этом должен произвести хеширование (проверку) старой папки (если не производит сам - помогите ему сделать это), и будет докачивать только те серии которых у вас ещё нет. Старые серии при этом не удаляются, а продолжают раздаваться!
    Eсли вы уже удалили старые серии, то предотвратить повторную закачку старых серий можно, отжав галочку в соответствующих местах при запуске нового торрента. По возможности, желательно не удалять старые серии как можно дольше чтобы релизёр не столько продолжал раздавать старые серии, а смог сконцентрироваться на новых.


    Код:

    General
    Complete name                            : F:\The.Messengers.s01e01.WEB-DLRip.x264.Rus.Eng.BaibaKo.tv.mp4
    Format                                   : MPEG-4
    Format profile                           : Base Media
    Codec ID                                 : isom
    File size                                : 561 MiB
    Duration                                 : 42mn 2s
    Overall bit rate mode                    : Variable
    Overall bit rate                         : 1 866 Kbps
    Encoded date                             : UTC 2015-04-18 17:11:35
    Tagged date                              : UTC 2015-04-18 17:11:35

    Video
    ID                                       : 1
    Format                                   : AVC
    Format/Info                              : Advanced Video Codec
    Format profile                           : Baseline@L3.0
    Format settings, CABAC                   : No
    Format settings, ReFrames                : 3 frames
    Codec ID                                 : avc1
    Codec ID/Info                            : Advanced Video Coding
    Duration                                 : 42mn 2s
    Bit rate                                 : 1 536 Kbps
    Maximum bit rate                         : 11.1 Mbps
    Width                                    : 720 pixels
    Height                                   : 400 pixels
    Display aspect ratio                     : 16:9
    Frame rate mode                          : Variable
    Frame rate                               : 23.976 fps
    Minimum frame rate                       : 23.974 fps
    Maximum frame rate                       : 23.981 fps
    Color space                              : YUV
    Chroma subsampling                       : 4:2:0
    Bit depth                                : 8 bits
    Scan type                                : Progressive
    Bits/(Pixel*Frame)                       : 0.222
    Stream size                              : 462 MiB (82%)
    Writing library                          : x264 core 142 r2479 dd79a61
    Encoding settings                        : cabac=0 / ref=3 / deblock=1:0:0 / analyse=0x1:0x111 / me=hex / subme=7 / psy=1 / psy_rd=1.00:0.00 / mixed_ref=1 / me_range=16 / chroma_me=1 / trellis=1 / 8x8dct=0 / cqm=0 / deadzone=21,11 / fast_pskip=1 / chroma_qp_offset=-2 / threads=12 / lookahead_threads=2 / sliced_threads=0 / nr=0 / decimate=1 / interlaced=0 / bluray_compat=0 / constrained_intra=0 / bframes=0 / weightp=0 / keyint=240 / keyint_min=24 / scenecut=40 / intra_refresh=0 / rc_lookahead=40 / rc=2pass / mbtree=1 / bitrate=1536 / ratetol=1.0 / qcomp=0.60 / qpmin=0 / qpmax=69 / qpstep=4 / cplxblur=20.0 / qblur=0.5 / vbv_maxrate=10000 / vbv_bufsize=10000 / nal_hrd=none / filler=0 / ip_ratio=1.40 / aq=1:1.00
    Tagged date                              : UTC 2015-04-18 17:12:34
    Color primaries                          : BT.709-5, BT.1361, IEC 61966-2-4, SMPTE RP177
    Transfer characteristics                 : BT.709-5, BT.1361
    Matrix coefficients                      : BT.709-5, BT.1361, IEC 61966-2-4 709, SMPTE RP177

    Audio #1
    ID                                       : 2
    Format                                   : AAC
    Format/Info                              : Advanced Audio Codec
    Format profile                           : LC
    Codec ID                                 : 40
    Duration                                 : 42mn 2s
    Bit rate mode                            : Variable
    Bit rate                                 : 163 Kbps
    Maximum bit rate                         : 241 Kbps
    Channel(s)                               : 2 channels
    Channel positions                        : Front: L R
    Sampling rate                            : 48.0 KHz
    Compression mode                         : Lossy
    Stream size                              : 49.0 MiB (9%)
    Language                                 : Russian
    Encoded date                             : UTC 2015-04-18 17:12:26
    Tagged date                              : UTC 2015-04-18 17:12:34

    Audio #2
    ID                                       : 3
    Format                                   : AAC
    Format/Info                              : Advanced Audio Codec
    Format profile                           : LC
    Codec ID                                 : 40
    Duration                                 : 42mn 2s
    Bit rate mode                            : Variable
    Bit rate                                 : 163 Kbps
    Maximum bit rate                         : 228 Kbps
    Channel(s)                               : 2 channels
    Channel positions                        : Front: L R
    Sampling rate                            : 48.0 KHz
    Compression mode                         : Lossy
    Stream size                              : 48.9 MiB (9%)
    Language                                 : English
    Encoded date                             : UTC 2015-04-18 17:12:30
    Tagged date                              : UTC 2015-04-18 17:12:34




    Скриншоты:
    скриншот   скриншот   скриншот   скриншот   скриншот  
    скриншот  

    Раздача ведётся путём добавления новых серий. Добавлена 13 серия (26.07.2015).Просьба перекачать торрент файл.

    pb.wtf



  • Скачать Посланники через торрент http://i48.fastpic.ru/big/2015/0419/63/31e5e5a834d9bad54e0c45fa70cf9663.jpg Скачать фильм Посланники через торрент бесплантно в хорошем качестве Описание: Когда таинственный объект падает на Землю, несколько незнакомцев умирают от энергетического импульса - но затем просыпаются и ... 9.5 10 43
    Info! Золотая раздача, скачанное не засчитывается.
    Торрент: Зарегистрирован [2015-07-26 03:03] · скачан: 256 раз
    Статус: √ проверено
    Размер: 6.9 GB
    Как cкачать? Как скачать Посланники через торрент | qTorrent

    % Раздел Тема Автор DL S | L
    Зарубежные сериалы [ 20.95 GB ] Посланники / The Messengers / Сезон: 1 / Серии 1-13 из 13 [2015 WEB-DL 1080p MVO] [BaibaKo] GEKADOL Скачать
    1 | 0
    Зарубежные сериалы [ 3.22 GB ] Посланники / The Messengers / Сезон: 1 / Серии 1-6 из 13 [2015 WEB-DLRip MVO] [NewStudio] Anonymous Скачать
    1 | 0


    Последний раз редактировалось: GEKADOL (2015-07-26 03:03), всего редактировалось 13 раз(а)

    28-11-2019 20:33  

    Отключить всю рекламу на сайте

    19-04-2015 19:52 Посланники Скачать торрент  

    Зачетный пилот! Заинтриговал. Спасибо!!pb.wtf



    26-04-2015 01:53 Посланники Скачать торрент  

    LeeH@N писал(а):

    Зачетный пилот! Заинтриговал. Спасибо!!

    Смотрим! pb.wtf



    26-04-2015 22:27 Посланники Скачать торрент  

    пилот -нормуль.
    что-то вроде 4400, только этих всё время кто-то догоняет\п"zдиt\и т.д.
    смотреть можно
    ******
    attention!!!
    есть религиозный уклон: бог-сатана\верю-не верю\всадники апокалипсиса - всё такое...pb.wtf



    27-04-2015 18:34 Посланники Скачать торрент  

    эммм по мойму фигня какая то но на любителяpb.wtf



    01-05-2015 22:04 Посланники Скачать торрент  

    УХ! Обожаю такие фильмы!!! Спасибо!pb.wtf



    20-05-2015 08:27 Посланники Скачать торрент  

    Католическая хреньpb.wtf



    22-05-2015 19:07 Посланники Скачать торрент  

    Закрыли сериал,вроде ниче такойpb.wtf



    27-05-2015 08:26 Посланники Скачать торрент  

    нормальное киноpb.wtf



    19-07-2015 08:35 Посланники Скачать торрент  

    последние две серии то сняли?pb.wtf



    26-07-2015 03:04 Посланники Скачать торрент  

    Smartaros писал(а):

    последние две серии то сняли?

    Все сняли))pb.wtf



    29-07-2015 11:45 Посланники Скачать торрент  

    я теж чув що закривають, рейтинг низький, америкосам тіки зомбі і подавай(фіг знає скільки серіалів вже), а багато цікавих закриваютьpb.wtf



      Дорогой пользователь! Огромная просьба, поблагодарите релизера, оцените раздачу и оставьте свои комментарий, если Вы скачали Посланники через торрент бесплатно! Внесите свою лепту в развитие PiratBit!
      Комментировать посты могут только пользователи прошедшие не сложную регистрацию
      Показать сообщения:    

      Посланники через торрент
      Скачать бесплатно Посланники
      Посланники скачать торрент
      Посланники смотреть онлайн
      Cкачать фильм Посланники бесплатно
      Посланники скачать торрент в хорошем качестве
      Посланники смотреть онлайн бесплатно в хорошем качестве


      Вы не можете начинать темы
      Вы не можете отвечать на сообщения
      Вы не можете редактировать свои сообщения
      Вы не можете удалять свои сообщения
      Вы не можете голосовать в опросах
      Вы не можете прикреплять файлы к сообщениям
      Вы можете скачивать файлы