Ссылка на приватное зеркало нашего сайта всего за 1$. Внимание количество ограничено!!!

2 сезон

iTunes

1 сезон

1

iTunes

iTunes

iTunes

1 сезон

RePack

30

ИГРА 18+

pack

ВАЖНО

!!Акция!!

Alien_RageХит недели

RePack

MK11
pack

Забери бонус

RePack

jed

!!Акция!!

Alien_Rage

RePack

fifa19

RePack

Assassins Creed: Odyssey

RePack

NEED FOR SPEED™ PAYBACK

4 сезон

9 сезон

Бесстыжие 9 сезон

Все сериалы

все сериалы на PB.wtf

RePack

FAR CRY 5
  

Пятёрка лидеров (Топ-5) / Top Five (Крис Рок / Chris Rock) [2014, США, комедия, BDRip 1080p, Дубляж] iTunes + ENG pb.wtf

Пятёрка лидеров через торрент pb.wtf

Размер: 11.67 GB | Добавлен: 5 лет 6 мес. назад | Торрент скачан:69 раз
Скачать  

20-04-2015 04:55 Пятёрка лидеров Скачать торрент  

Пятёрка лидеров (Топ-5) / Top Five


  • Год выпуска: 2014
  • Страна: США
  • Жанр: комедия
  • Продолжительность: 01:41:59
  • Перевод: Дубляж - [Лицензия / iTunes]

  • Режиссер: Крис Рок / Chris Rock
  • В ролях:

    Крис Рок (Andre Allen), Розарио Доусон (Chelsea Brown), Дж.Б. Смув (Silk), Гэбриэл Юнион (Erica Long), Романи Малко (Benny Barnes), Андерс Холм (Brad), Седрик «Развлекатель» (Jazzy Dee), Карли Льюис (Rhonda), Кевин Барнетт (Columbia Student), Хейли Норман (Tammy), Женевьева Энджелсон (Columbia Student), Бен Коул (Columbia Student)

  • Описание:
    История о комедийном актере, который пытается перестать шутить и начать вести себя как серьезный актер, когда его невеста, звезда реалити-шоу, уговаривает его устроить трансляцию их свадьбы на ее шоу...
  • Рейтинг:



  • Качество: BDRip 1080p
  • Формат: :MKV
  • Видео кодек: AVC
  • Аудио кодек: AC3, DTS
  • Видео: 1920x800 (2.40:1), 14500 kbps, 23,976 fps, 0,394 bpp
  • Аудио №1: русский / 5.1 / 48 kHz / 384 kbps / 16 bit |[Лицензия / iTunes]|
  • Аудио №2: английский / 5.1 / 48 kHz / 1510 kbps / 24 bit
  • Релиз от: GEKADOL

    Код:

    General
    Unique ID                                : 236616169593189425189885160505529310889 (0xB2029DDBC36D8286AED233E4EEBB9EA9)
    Complete name                            : D:\Фильмы\t0p.Pyatj.2014.D.BDRip.1080p.mkv
    Format                                   : Matroska
    Format version                           : Version 4 / Version 2
    File size                                : 11.7 GiB
    Duration                                 : 1h 41mn
    Overall bit rate                         : 16.4 Mbps
    Encoded date                             : UTC 2015-04-19 18:11:25
    Writing application                      : mkvmerge v7.6.0 ('Garden of Dreams') 32bit built on Feb  8 2015 12:51:39
    Writing library                          : libebml v1.3.1 + libmatroska v1.4.2

    Video
    ID                                       : 1
    Format                                   : AVC
    Format/Info                              : Advanced Video Codec
    Format profile                           : High@L4.1
    Format settings, CABAC                   : Yes
    Format settings, ReFrames                : 5 frames
    Codec ID                                 : V_MPEG4/ISO/AVC
    Duration                                 : 1h 41mn
    Bit rate                                 : 14.5 Mbps
    Width                                    : 1 920 pixels
    Height                                   : 800 pixels
    Display aspect ratio                     : 2.40:1
    Frame rate                               : 23.976 fps
    Color space                              : YUV
    Chroma subsampling                       : 4:2:0
    Bit depth                                : 8 bits
    Scan type                                : Progressive
    Bits/(Pixel*Frame)                       : 0.394
    Stream size                              : 10.1 GiB (86%)
    Writing library                          : x264 core 129 r2245+704+36 8e61944 tMod+MixAQ [8-bit@4:2:0 X86_64]
    Encoding settings                        : cabac=1 / ref=5 / deblock=1:-3:-3 / analyse=0x3:0x133 / me=umh / subme=11 / psy=1 / fade_compensate=0.00 / psy_rd=1.05:0.10 / mixed_ref=1 / me_range=64 / chroma_me=1 / trellis=2 / 8x8dct=1 / cqm=0 / deadzone=21,11 / fast_pskip=0 / chroma_qp_offset=-3 / threads=12 / lookahead_threads=2 / sliced_threads=0 / nr=0 / decimate=1 / interlaced=0 / bluray_compat=0 / constrained_intra=0 / fgo=0 / bframes=8 / b_pyramid=2 / b_adapt=2 / b_bias=0 / direct=3 / weightb=1 / open_gop=0 / weightp=2 / keyint=250 / keyint_min=23 / scenecut=40 / intra_refresh=0 / rc_lookahead=80 / rc=2pass / mbtree=1 / bitrate=14500 / ratetol=1.0 / qcomp=0.70 / qpmin=0 / qpmax=69 / qpstep=4 / cplxblur=20.0 / qblur=0.5 / vbv_maxrate=38000 / vbv_bufsize=30000 / nal_hrd=none / ip_ratio=1.40 / aq=1 / aq-strength=0.80 / aq-sensitivity=10.00 / aq-ifactor=1.00 / aq-pfactor=1.00 / aq-bfactor=1.00 / aq2=0
    Language                                 : English
    Default                                  : Yes
    Forced                                   : No

    Audio #1
    ID                                       : 2
    Format                                   : AC-3
    Format/Info                              : Audio Coding 3
    Mode extension                           : CM (complete main)
    Codec ID                                 : A_AC3
    Duration                                 : 1h 41mn
    Bit rate mode                            : Constant
    Bit rate                                 : 384 Kbps
    Channel(s)                               : 6 channels
    Channel positions                        : Front: L C R, Side: L R, LFE
    Sampling rate                            : 48.0 KHz
    Bit depth                                : 16 bits
    Compression mode                         : Lossy
    Stream size                              : 280 MiB (2%)
    Language                                 : Russian
    Default                                  : Yes
    Forced                                   : No

    Audio #2
    ID                                       : 3
    Format                                   : DTS
    Format/Info                              : Digital Theater Systems
    Codec ID                                 : A_DTS
    Duration                                 : 1h 41mn
    Bit rate mode                            : Constant
    Bit rate                                 : 1 510 Kbps
    Channel(s)                               : 6 channels
    Channel positions                        : Front: L C R, Side: L R, LFE
    Sampling rate                            : 48.0 KHz
    Bit depth                                : 24 bits
    Compression mode                         : Lossy
    Stream size                              : 1.08 GiB (9%)
    Title                                    : English
    Language                                 : English
    Default                                  : No
    Forced                                   : No

    Menu
    00:00:00.000                             : en:00:00:00.000
    00:08:49.654                             : en:00:08:49.654
    00:17:21.582                             : en:00:17:21.582
    00:27:48.834                             : en:00:27:48.834
    00:33:47.776                             : en:00:33:47.776
    00:44:03.808                             : en:00:44:03.808
    00:52:44.328                             : en:00:52:44.328
    00:59:28.440                             : en:00:59:28.440
    01:08:49.459                             : en:01:08:49.459
    01:17:13.838                             : en:01:17:13.838
    01:23:02.769                             : en:01:23:02.769
    01:28:59.543                             : en:01:28:59.543
    01:33:42.075                             : en:01:33:42.075




    Скриншоты:


    pb.wtf



  • Скачать Пятёрка лидеров через торрент http://i59.fastpic.ru/big/2015/0420/81/d14be3f5a5e299fd13e5a6491a7aef81.jpg Скачать фильм Пятёрка лидеров через торрент бесплантно в хорошем качестве Описание: История о комедийном актере, который пытается перестать шутить и начать вести себя как серьезный актер, когда его невеста, звезда ... 8.5 10 6
    Info! Золотая раздача, скачанное не засчитывается.
    Торрент: Зарегистрирован [2015-04-20 04:55] · скачан: 69 раз
    Статус: √ проверено
    Размер: 11.67 GB
    Как cкачать? Как скачать Пятёрка лидеров через торрент | qTorrent

    % Раздел Тема Автор DL S | L
    Фильмы [HD 720p, 1080p] (Хороший звук DUB, MVO) [ 5.74 GB ] Пятёрка лидеров / Top Five [2014 BDRip 720p ] + ENG GEKADOL Скачать
    1 | 0

    28-11-2019 20:33  

    Отключить всю рекламу на сайте

      Дорогой пользователь! Огромная просьба, поблагодарите релизера, оцените раздачу и оставьте свои комментарий, если Вы скачали Пятёрка лидеров через торрент бесплатно! Внесите свою лепту в развитие PiratBit!
      Комментировать посты могут только пользователи прошедшие не сложную регистрацию
      Показать сообщения:    

      Пятёрка лидеров через торрент
      Скачать бесплатно Пятёрка лидеров
      Пятёрка лидеров скачать торрент
      Пятёрка лидеров смотреть онлайн
      Cкачать фильм Пятёрка лидеров бесплатно
      Пятёрка лидеров скачать торрент в хорошем качестве
      Пятёрка лидеров смотреть онлайн бесплатно в хорошем качестве


      Вы не можете начинать темы
      Вы не можете отвечать на сообщения
      Вы не можете редактировать свои сообщения
      Вы не можете удалять свои сообщения
      Вы не можете голосовать в опросах
      Вы не можете прикреплять файлы к сообщениям
      Вы можете скачивать файлы