Ссылка на приватное зеркало нашего сайта всего за 1$. Внимание количество ограничено!!!

2 сезон

iTunes

1 сезон

1

iTunes

iTunes

iTunes

1 сезон

RePack

30

ИГРА 18+

pack

ВАЖНО

!!Акция!!

Alien_RageХит недели

RePack

MK11
pack

Забери бонус

RePack

jed

!!Акция!!

Alien_Rage

RePack

fifa19

RePack

Assassins Creed: Odyssey

RePack

NEED FOR SPEED™ PAYBACK

4 сезон

9 сезон

Бесстыжие 9 сезон

Все сериалы

все сериалы на PB.wtf

RePack

FAR CRY 5
  

Ярость / The Fury (Брайан Де Пальма) [1978, ужасы, фантастика, триллер, драма, BDRip 1080p] MVO, DVO, 3 x AVO pb.wtf

Ярость через торрент pb.wtf

Размер: 15.23 GB | Добавлен: 5 лет 6 мес. назад | Торрент скачан:9 раз
Скачать  

20-04-2015 06:37 Ярость Скачать торрент  

Ярость / The Fury

Год выпуска: 1978
Страна: США
Жанр: ужасы, фантастика, триллер, драма
Продолжительность: 01:57:57
Перевод: Профессиональный многоголосый, профессиональный двухголосый, авторский

Режиссёр: Брайан Де Пальма

В ролях: Кирк Дуглас, Джон Кассаветис, Кэрри Снодгресс, Чарльз Дёрнинг, Эми Ирвинг, Фиона Льюис, Эндрю Стивенс, Кэрол Ив Россен, Рутанья Алда, Джойс Истон

Описание: Секретное американское агентство проводит эксперименты с детьми, обладающими повышенными телепатическими способностями, чтобы впоследствии использовать их в военных целях. Бывший агент ЦРУ Питер Сандза, спокойно отдыхающий со своим сыном Робином на Ближнем Востоке, переживает шок, когда мальчика неожиданно похищают. Чтобы выйти на его след, Питер обращается за помощью к девушке-экстрасенсу Джиллиан Беллевер. То, что им удается узнать, поначалу никак не укладывается у Питера в голове... Фильм по роману Джона Фэрриса.



Качество: BDRip 1080p Сравнение с исходником
Формат: MKV
Видео: MPEG-4 AVC, 14.1 Mбит/с, 1920x1040, 23,976 кадра/с
Аудио 1: русский, AC3, 448 kbps, 4 ch, 48 kHz [профессиональный многоголосый, DVD, R5]
Аудио 2: русский, AC3, 192 kbps, 2 ch, 48 kHz [профессиональный двухголосый, HTB+]
Аудио 3: русский, AC3, 192 kbps, 2 ch, 48 kHz [авторский, Леонид Володарский]
Аудио 4: русский, AC3, 192 kbps, 2 ch, 48 kHz [авторский, Андрей Гаврилов]
Аудио 5: русский, DTS, 1509 kbps, 4 ch, 48 kHz [авторский, Алексей Михалёв]
Аудио 6: английский, DTS, 1509 kbps, 5 ch, 48 kHz [оригинал]
Субтитры 1: русские
Субтитры 2: английские (для слабослышащих)
frame I:924 Avg QP:23.15 size:175785
frame P:29378 Avg QP:24.13 size:113790
frame B:139299 Avg QP:26.34 size: 66518

Общее
Уникальный идентификатор : 207034116177779094229105442913583568396 (0x9BC15204CB4E0202B9C99DC03E6F160C)
Полное имя : D:VideoЯрость.1978.BDRip.1080p.mkv
Формат : Matroska
Версия формата : Version 4 / Version 2
Размер файла : 15,2 Гбайт
Продолжительность : 1 ч. 57 м.
Общий поток : 18,5 Мбит/сек
Название фильма : BDRip -- С.Таранков
Дата кодирования : UTC 2015-04-20 03:05:40
Программа кодирования : mkvmerge v7.8.0 ('River Man') 64bit built on Mar 27 2015 16:31:37
Библиотека кодирования : libebml v1.3.1 + libmatroska v1.4.2
_STATISTICS_WRITING_APP : mkvmerge v7.8.0 ('River Man') 64bit built on Mar 27 2015 16:31:37
_STATISTICS_WRITING_DATE_UTC : 2015-04-20 03:05:40
_STATISTICS_TAGS : BPS DURATION NUMBER_OF_FRAMES NUMBER_OF_BYTES
DURATION : 01:57:53.782000000
NUMBER_OF_FRAMES : 663167
NUMBER_OF_BYTES : 1334293328

Видео
Идентификатор : 1
Формат : AVC
Формат/Информация : Advanced Video Codec
Профиль формата : High@L4.1
Параметр CABAC формата : Да
Параметр ReFrames формата : 4 кадра
Идентификатор кодека : V_MPEG4/ISO/AVC
Продолжительность : 1 ч. 57 м.
Битрейт : 14,1 Мбит/сек
Ширина : 1920 пикселей
Высота : 1040 пикселей
Соотношение сторон : 1,85:1
Режим частоты кадров : Постоянный
Частота кадров : 23,976 кадра/сек
Цветовое пространство : YUV
Субдискретизация насыщенности : 4:2:0
Битовая глубина : 8 бит
Тип развёртки : Прогрессивная
Бит/(Пиксели*Кадры) : 0.294
Размер потока : 11,6 Гбайт (76%)
Библиотека кодирования : x264 core 146 r2538 121396c
Настройки программы : cabac=1 / ref=4 / deblock=1:-1:-1 / analyse=0x3:0x113 / me=umh / subme=10 / psy=1 / psy_rd=1.00:0.15 / mixed_ref=1 / me_range=32 / chroma_me=1 / trellis=2 / 8x8dct=1 / cqm=0 / deadzone=21,11 / fast_pskip=1 / chroma_qp_offset=-3 / threads=6 / lookahead_threads=1 / sliced_threads=0 / nr=0 / decimate=1 / interlaced=0 / bluray_compat=0 / constrained_intra=0 / bframes=10 / b_pyramid=2 / b_adapt=2 / b_bias=0 / direct=1 / weightb=1 / open_gop=0 / weightp=2 / keyint=230 / keyint_min=23 / scenecut=40 / intra_refresh=0 / rc_lookahead=40 / rc=crf / mbtree=0 / crf=22.0 / qcomp=0.60 / qpmin=0 / qpmax=69 / qpstep=4 / vbv_maxrate=40000 / vbv_bufsize=50000 / crf_max=0.0 / nal_hrd=none / filler=0 / ip_ratio=1.40 / pb_ratio=1.30 / aq=1:1.00
Язык : English
Default : Да
Forced : Нет
DURATION : 01:57:53.775000000
NUMBER_OF_FRAMES : 169601
NUMBER_OF_BYTES : 12771207671
_STATISTICS_WRITING_APP : mkvmerge v7.8.0 ('River Man') 64bit built on Mar 27 2015 16:31:37
_STATISTICS_WRITING_DATE_UTC : 2015-04-20 03:05:40
_STATISTICS_TAGS : BPS DURATION NUMBER_OF_FRAMES NUMBER_OF_BYTES

Аудио #1
Идентификатор : 2
Формат : AC-3
Формат/Информация : Audio Coding 3
Расширение режима : CM (complete main)
Параметр Endianness формата : Big
Идентификатор кодека : A_AC3
Продолжительность : 1 ч. 57 м.
Вид битрейта : Постоянный
Битрейт : 448 Кбит/сек
Каналы : 4 канала
Расположение каналов : Front: L C R, Back: C
Частота : 48,0 КГц
Битовая глубина : 16 бит
Метод сжатия : С потерями
Размер потока : 378 Мбайт (2%)
Заголовок : MVO (DVD, R5)
Язык : Russian
Default : Да
Forced : Нет

Аудио #2
Идентификатор : 3
Формат : AC-3
Формат/Информация : Audio Coding 3
Расширение режима : CM (complete main)
Параметр Endianness формата : Big
Идентификатор кодека : A_AC3
Продолжительность : 1 ч. 57 м.
Вид битрейта : Постоянный
Битрейт : 192 Кбит/сек
Каналы : 2 канала
Расположение каналов : Front: L R
Частота : 48,0 КГц
Битовая глубина : 16 бит
Метод сжатия : С потерями
Размер потока : 162 Мбайт (1%)
Заголовок : DVO (HTB+)
Язык : Russian
Default : Нет
Forced : Нет

Аудио #3
Идентификатор : 4
Формат : AC-3
Формат/Информация : Audio Coding 3
Расширение режима : CM (complete main)
Параметр Endianness формата : Big
Идентификатор кодека : A_AC3
Продолжительность : 1 ч. 57 м.
Вид битрейта : Постоянный
Битрейт : 192 Кбит/сек
Каналы : 2 канала
Расположение каналов : Front: L R
Частота : 48,0 КГц
Битовая глубина : 16 бит
Метод сжатия : С потерями
Размер потока : 162 Мбайт (1%)
Заголовок : AVO (Леонид Володарский)
Язык : Russian
Default : Нет
Forced : Нет

Аудио #4
Идентификатор : 5
Формат : AC-3
Формат/Информация : Audio Coding 3
Расширение режима : CM (complete main)
Параметр Endianness формата : Big
Идентификатор кодека : A_AC3
Продолжительность : 1 ч. 57 м.
Вид битрейта : Постоянный
Битрейт : 192 Кбит/сек
Каналы : 2 канала
Расположение каналов : Front: L R
Частота : 48,0 КГц
Битовая глубина : 16 бит
Метод сжатия : С потерями
Размер потока : 162 Мбайт (1%)
Заголовок : AVO (Андрей Гаврилов)
Язык : Russian
Default : Нет
Forced : Нет

Аудио #5
Идентификатор : 6
Формат : DTS
Формат/Информация : Digital Theater Systems
Режим : 16
Параметр Endianness формата : Big
Идентификатор кодека : A_DTS
Продолжительность : 1 ч. 57 м.
Вид битрейта : Постоянный
Битрейт : 1509 Кбит/сек
Каналы : 4 канала
Расположение каналов : Front: L C R, Back: C
Частота : 48,0 КГц
Битовая глубина : 16 бит
Метод сжатия : С потерями
Размер потока : 1,24 Гбайт (8%)
Заголовок : AVO (Алексей Михалёв)
Язык : Russian
Default : Нет
Forced : Нет

Аудио #6
Идентификатор : 7
Формат : DTS
Формат/Информация : Digital Theater Systems
Режим : 16
Параметр Endianness формата : Big
Идентификатор кодека : A_DTS
Продолжительность : 1 ч. 57 м.
Вид битрейта : Постоянный
Битрейт : 1509 Кбит/сек
Каналы : 4 канала
Расположение каналов : Front: L C R, Back: C
Частота : 48,0 КГц
Битовая глубина : 24 бит
Метод сжатия : С потерями
Размер потока : 1,24 Гбайт (8%)
Заголовок : Original
Язык : English
Default : Нет
Forced : Нет

Текст #1
Идентификатор : 8
Формат : UTF-8
Идентификатор кодека : S_TEXT/UTF8
Идентификатор кодека/Информация : UTF-8 Plain Text
Заголовок : русские
Язык : Russian
Default : Нет
Forced : Нет

Текст #2
Идентификатор : 9
Формат : UTF-8
Идентификатор кодека : S_TEXT/UTF8
Идентификатор кодека/Информация : UTF-8 Plain Text
Заголовок : английские (для слабослышащих)
Default : Нет
Forced : Нет
pb.wtf



Скачать Ярость через торрент http://i58.fastpic.ru/big/2015/0418/38/57a5a3ca2e6b479a95e9eea5fc0cdd38.jpg Скачать фильм Ярость через торрент бесплантно в хорошем качестве Описание: Секретное американское агентство проводит эксперименты с детьми, обладающими повышенными телепатическими способностями, чтобы ... 10 10 4
Торрент: Зарегистрирован [2015-04-20 06:37] · скачан: 9 раз
Статус: √ проверено
Размер: 15.23 GB
Как cкачать? Как скачать Ярость через торрент | qTorrent

% Раздел Тема Автор DL S | L
Фильмы до 2000 г. [ 4.17 GB ] Ярость / The Fury [1978 BDRip AVC] MVO DVO 3 x AVO msltel Скачать
1 | 0
Фильмы [HD 720p, 1080p] (Хороший звук DUB, MVO) [ 6.4 GB ] Ярость / The Fury [1978 BDRip 720p] MVO DVO 3 x AVO msltel Скачать
1 | 0

28-11-2019 20:33  

Отключить всю рекламу на сайте

20-04-2015 09:24 Ярость Скачать торрент  

Прикольно! Хотели возмутиться - типа "Какое же это 1978г.?" - а тут совсем др. фильм, и в правду 78pb.wtf



    Дорогой пользователь! Огромная просьба, поблагодарите релизера, оцените раздачу и оставьте свои комментарий, если Вы скачали Ярость через торрент бесплатно! Внесите свою лепту в развитие PiratBit!
    Комментировать посты могут только пользователи прошедшие не сложную регистрацию
    Показать сообщения:    

    Ярость через торрент
    Скачать бесплатно Ярость
    Ярость скачать торрент
    Ярость смотреть онлайн
    Cкачать фильм Ярость бесплатно
    Ярость скачать торрент в хорошем качестве
    Ярость смотреть онлайн бесплатно в хорошем качестве


    Вы не можете начинать темы
    Вы не можете отвечать на сообщения
    Вы не можете редактировать свои сообщения
    Вы не можете удалять свои сообщения
    Вы не можете голосовать в опросах
    Вы не можете прикреплять файлы к сообщениям
    Вы можете скачивать файлы