1 сезон

3 сезон

iTunes

1

iTunes

MVO

iTunes

13

1 сезон

RePack

30

Deluxe

pack

Лицензия

ВАЖНО

ИГРА 18+

pack

RePack

MK11

RePack

jed

RePack

fifa19

RePack

RDR2

RePack

NEED FOR SPEED™ PAYBACK

4 сезон

9 сезон

Бесстыжие 9 сезон

Все сериалы

все сериалы на PB.wtf

RePack

FAR CRY 5

Anonymous, добрый день, мы катастрофически не успеваем собрать деньги на оплату серверов, помогите нам пожалуйста 5,10,15р., для нас важна любая помощь . В качестве благодарности мы отключим Вам всю рекламу на сайте (укажите свой ник в строку Ваше имя)!

×
  
Magnet ссылка

Паркер / Parker (Тейлор Хэкфорд / Taylor Hackford) [2013, боевик, триллер, криминал, DVD9] R5 pb.wtf

Паркер через торрент pb.wtf

Размер: 6.78 GB | Добавлен: 6 лет 3 мес. назад | Торрент скачан:5 раз
Скачать  

15-05-2013 16:20 Паркер Скачать торрент  


Паркер / Parker
«To get away clean, you have to play dirty.»
Страна: США
Студия: Alexander/ Mitchell Productions, Anvil Films, Current Entertainment, Incentive Filmed Entertainment, Sidney Kimmel Entertainment, Sierra Pictures (III)
Жанр: боевик, триллер, криминал
Год выпуска: 2013
Мировая премьера: 12 октября 2012
Российская премьера: 31 января 2013, «Централ Партнершип»
Дата выхода DVD: 23 мая 2013, «CD Land»
Дата выхода Blu-Ray: 6 июня 2013, «CD Land»
Продолжительность: 01:53:43
Перевод: Профессиональный (дублированный) [Лицензия]
Cубтитры: нет
Оригинальная аудиодорожка: нет
Режиссер: Тейлор Хэкфорд / Taylor Hackford
В ролях: Джейсон Стэйтем, Дженнифер Лопез, Майкл Чиклис, Бобби Каннавале, Ник Нолти, Уенделл Пирс, Клифтон Коллинз мл., Пэтти ЛюПон, Карлос Карраско, Мика А. Хауптман
Описание: Главный герой — профессиональный вор, руководствующийся собственным моральным кодексом, но способный запросто отправить на тот свет любого, кто перейдет ему дорогу.
Бонусы: нет

Релиз группы:
Качество: DVD9 R5
Формат: DVD-Video
Видео кодек: MPEG2
Аудио кодек: AC3
Видео: PAL 16:9 (720x576(0.820)) MPEG Video, 25,000 кадр/сек, 8506 Кбит/сек
Аудио: Russian (Dolby AC3, 6 ch) 256 Кбит/сек, 48,0 КГц



Title: Parker.2013.DVD9
Size: 6.78 Gb ( 7 109 306,00 KBytes ) - DVD-9
Enabled regions: 1, 2, 3, 4, 5, 6, 7, 8

VTS_01 :
Play Length: 00:00:19
Video: PAL 16:9 (720x576) VBR, Auto Pan&Scan, Auto Letterboxed
Audio:
Not specified (Dolby AC3, 2 ch)

VTS_02 :
Play Length: 00:00:15
Video: PAL 16:9 (720x576) VBR, Auto Pan&Scan, Auto Letterboxed
Audio:
Not specified (Dolby AC3, 2 ch)

VTS_03 :
Play Length: 01:53:43
Video: PAL 16:9 (720x576) VBR, Auto Letterboxed
Audio:
Not specified (Dolby AC3, 6 ch)

* Menus Information *

VIDEO_TS Menu
Video:
PAL 16:9 (720x576) VBR
Auto Pan&Scan, Auto Letterboxed
Russian Language Unit :
Title Menu

VTS_01 Menu
Video:
PAL 16:9 (720x576) VBR
Auto Pan&Scan, Auto Letterboxed
Audio:
Not specified (Dolby AC3, 5 ch)
Russian Language Unit :
Root Menu

VTS_02 Menu
Video:
PAL 4:3 (720x576) VBR
Russian Language Unit :
Root Menu

VTS_03 Menu
Video:
PAL 4:3 (720x576) VBR
Russian Language Unit :
Root Menu
Общее
Полное имя : M:Новинки 2013Parker.2013.DVD9VIDEO_TSVTS_03_1.VOB
Формат : MPEG-PS
Размер файла : 1024 Мбайт
Продолжительность : 16 м.
Режим общего битрейта : Переменный
Общий поток : 8940 Кбит/сек

Видео
Идентификатор : 224 (0xE0)
Формат : MPEG Video
Версия формата : Version 2
Профиль формата : Main@Main
Параметр BVOP формата : Да
Параметр матрицы формата : Выборочная
Параметр GOP формата : Variable
Продолжительность : 16 м.
Вид битрейта : Переменный
Битрейт : 8506 Кбит/сек
Максимальный битрейт : 9000 Кбит/сек
Ширина : 720 пикселей
Высота : 576 пикселей
Соотношение сторон : 16:9
Частота кадров : 25,000 кадров/сек
Стандарт вещания : PAL
Цветовое пространство : YUV
Субдискретизация насыщенности : 4:2:0
Битовая глубина : 8 бит
Тип развёртки : Чересстрочная
Порядок развёртки : Верхнее поле первое
Метод сжатия : С потерями
Бит/(Пиксели*Кадры) : 0.820
Размер потока : 974 Мбайт (95%)

Аудио
Идентификатор : 189 (0xBD)-128 (0x80)
Формат : AC-3
Формат/Информация : Audio Coding 3
Расширение режима : CM (complete main)
Параметр Endianness формата : Big
Режим смешивания : DVD-Video
Продолжительность : 16 м.
Вид битрейта : Постоянный
Битрейт : 256 Кбит/сек
Каналы : 6 каналов
Расположение каналов : Front: L C R, Side: L R, LFE
Частота : 48,0 КГц
Битовая глубина : 16 бит
Метод сжатия : С потерями
Размер потока : 29,3 Мбайт (3%)










pb.wtf



Скачать Паркер через торрент http://s018.radikal.ru/i521/1305/cb/ae5cad1eb758.jpg Скачать фильм Паркер через торрент бесплантно в хорошем качестве Описание: Главный герой — вор, руководствующийся собственным моральным кодексом, но способный запросто отправить на тот ... 9.7 10 10
Торрент: Зарегистрирован [2015-04-20 07:16] · скачан: 5 раз
Статус: √ проверено
Размер: 6.78 GB
Как cкачать? Как скачать Паркер через торрент | UTorrent

% Раздел Тема Автор DL S | L
Фильмы 2016 [DVDrip, WEB-DLRip, HDrip] (DUB, MVO) [ 1.46 GB ] Папашина армия / Dad's Army [2016 Военный HDRip ] Cruzer Скачать
1 | 0
Фильмы (DVD фильмы) [ 6.55 GB ] Сейчас самое время / Now Is Good [2012 DVD9] R5 voovaz Скачать
1 | 0
Фильмы (DVD фильмы) [ 7.59 GB ] Агент Джонни Инглиш: Перезагрузка / Johnny English Reborn [2011 DVD9] R5 voovaz Скачать
1 | 0

28-11-2019 20:33  

Отключить всю рекламу на сайте

    Дорогой пользователь! Огромная просьба, поблагодарите релизера, оцените раздачу и оставьте свои комментарий, если Вы скачали Паркер через торрент бесплатно! Внесите свою лепту в развитие PiratBit!
    Комментировать посты могут только пользователи прошедшие не сложную регистрацию
    Показать сообщения:    

    Паркер через торрент
    Скачать бесплатно Паркер
    Паркер скачать торрент
    Паркер смотреть онлайн
    Cкачать фильм Паркер бесплатно
    Паркер скачать торрент в хорошем качестве
    Паркер смотреть онлайн бесплатно в хорошем качестве


    Вы не можете начинать темы
    Вы не можете отвечать на сообщения
    Вы не можете редактировать свои сообщения
    Вы не можете удалять свои сообщения
    Вы не можете голосовать в опросах
    Вы не можете прикреплять файлы к сообщениям
    Вы можете скачивать файлы